↑↓Torrent.by
Поиск
Логин: Регистрация
Пароль: Восстановить пароль
Загрузка...

Случайная невеста (Наследница) [01-04 из 04] (2018) SATRip-AVC

Скачать sluchaynaya-nevesta-naslednica-01-04-iz-2018-satrip-avc.torrent
U Магнитная ссылка Размер: 2.39 GB Раздают: 4 Качают: 4 Добавлен: 2018-08-08 20:25:58


>Информация о фильме
>Название: Случайная невеста | Наследница
>Год выхода: 2018
>Жанр: мелодрама
>Режиссер: Мария Кравченко

>В ролях: Любава Грешнова, Константин Соловьёв, Антон Макарский, Петар Зекавица, Алеса Качер, Вахтанг Беридзе, Евгения Бордзиловская, Елизавета Анохина

>О фильме:
Настя – врач «Скорой помощи», а это значит, что в ответственные моменты она не должна терять контроль над чувствами и эмоциями. У нее доброе сердце и отзывчивый характер. Но однажды Настя все же теряет голову, влюбляясь в Сергея Игнатьева. Героиня познакомилась с ним, приехав на вызов к дочке владельца крупной строительной компании Марка Князева. Случайное знакомство перерастает в бурный роман с красивым ухаживанием, цветами и подарками. И, спустя неделю, мужчина делает Насте предложение. Девушка не верит своему счастью. Ей кажется, она вытянула счастливый билет: ее избранник достойный и благородный человек. Однако последующие события и случайно подслушанный разговор полностью разрушат иллюзии... Что выберет Настя – бежать от опасного жениха или притвориться и играть роль счастливой невесты?


>Страна: Россия | Эволюшн пикчерс
>Продолжительность: ~ 00:46:00
>Язык: Русский


>Файл
>Качество: SATRip-AVC
>Видео: MPEG-4 AVC, ~ 1700 Кбит/с, 720х400
>Звук: AC3, 2 ch, 192 Кбит/с







[+] "MediaInfo"

Общее
Уникальный идентификатор                 : 173651163020533877084242080877055612865 (0x82A3FF5A72EEE143911B78FC17C097C1)
Полное имя                               : E:\Случайная невеста\01 серия_Случайная невеста_rip by_Aleksan55.mkv
Формат                                   : Matroska
Версия формата                           : Version 2
Размер файла                             : 624 Мбайт
Продолжительность                        : 46 м. 1 с.
Общий поток                              : 1894 Кбит/сек
Дата кодирования                         : UTC 2018-08-08 12:15:04
Программа кодирования                    : mkvmerge v7.8.0 ('River Man') 32bit built on Apr  3 2015 12:11:22
Библиотека кодирования                   : libebml v1.3.1 + libmatroska v1.4.2

Видео
Идентификатор                            : 1
Формат                                   : AVC
Формат/Информация                        : Advanced Video Codec
Профиль формата                          : High@L4.1
Параметр CABAC формата                   : Да
Параметр ReFrames формата                : 14 кадров
Идентификатор кодека                     : V_MPEG4/ISO/AVC
Продолжительность                        : 46 м. 1 с.
Битрейт                                  : 1700 Кбит/сек
Ширина                                   : 720 пикселей
Высота                                   : 400 пикселей
Соотношение сторон                       : 16:9
Режим частоты кадров                     : Постоянный
Частота кадров                           : 25,000 кадров/сек
Цветовое пространство                    : YUV
Субдискретизация насыщенности            : 4:2:0
Битовая глубина                          : 8 бит
Тип развёртки                            : Прогрессивная
Бит/(Пиксели*Кадры)                      : 0.236
Размер потока                            : 548 Мбайт (88%)
Библиотека кодирования                   : x264 core 146 r2538 121396c
Настройки программы                      : cabac=1 / ref=14 / deblock=1:-1:-1 / analyse=0x3:0x133 / me=umh / subme=9 / psy=1 / psy_rd=1.00:0.00 / mixed_ref=0 / me_range=32 / chroma_me=1 / trellis=2 / 8x8dct=1 / cqm=0 / deadzone=21,11 / fast_pskip=1 / chroma_qp_offset=-2 / threads=12 / lookahead_threads=1 / sliced_threads=0 / nr=0 / decimate=1 / interlaced=0 / bluray_compat=0 / constrained_intra=0 / bframes=14 / b_pyramid=2 / b_adapt=1 / b_bias=0 / direct=3 / weightb=1 / open_gop=0 / weightp=2 / keyint=250 / keyint_min=25 / scenecut=40 / intra_refresh=0 / rc_lookahead=40 / rc=2pass / mbtree=1 / bitrate=1700 / ratetol=1.0 / qcomp=0.60 / qpmin=0 / qpmax=39 / qpstep=4 / cplxblur=20.0 / qblur=0.5 / ip_ratio=1.40 / aq=1:1.00
Default                                  : Да
Forced                                   : Нет
Цветовой диапазон                        : Limited
Основные цвета                           : BT.601 PAL
Характеристики трансфера                 : BT.470 System B, BT.470 System G
Коэффициенты матрицы                     : BT.601

Аудио
Идентификатор                            : 2
Формат                                   : AC-3
Формат/Информация                        : Audio Coding 3
Расширение режима                        : CM (complete main)
Параметр Endianness формата              : Big
Идентификатор кодека                     : A_AC3
Продолжительность                        : 46 м. 1 с.
Вид битрейта                             : Постоянный
Битрейт                                  : 192 Кбит/сек
Каналы                                   : 2 канала
Расположение каналов                     : Front: L R
Частота                                  : 48,0 КГц
Частота кадров                           : 31,250 кадров/сек (1536 spf)
Битовая глубина                          : 16 бит
Метод сжатия                             : С потерями
Размер потока                            : 63,2 Мбайт (10%)
Default                                  : Да
Forced                                   : Нет


[+] "Скриншоты"

         



[+] Всего файлов в раздаче - 4:
01 серия_Случайная невеста_rip by_Aleksan55.mkv623.55 MB
02 серия_Случайная невеста_rip by_Aleksan55.mkv603.32 MB
03 серия_Случайная невеста_rip by_Aleksan55.mkv622.50 MB
04 серия_Случайная невеста_rip by_Aleksan55.mkv597.86 MB

Текущая раздача:
ДатаКомментарии    РазмерПиры
2018-08-08 U Случайная невеста (Наследница) [01-04 из 04] (2018) SATRip-AVC 2.39 GB ↑ 4 ↓ 4

Похожие раздачи по запросу - случайная:
2018-08-10 U Случайная невеста / Наследница [01-04 из 04] (2018) WEB-DLRip-AVC от Files-x 2.31 GB ↑ 40 ↓ 15
2018-08-09 U Случайная невеста / Наследница [01-04 из 04] (2018) WEB-DLRip от Files-x 2.34 GB ↑ 24 ↓ 71
2018-08-09 U Случайная невеста / Наследница [01-04 из 04] (2018) WEB-DL 720p от Files-x 4.76 GB ↑ 62 ↓ 50

Отзывы
Зарегистрируйтесь чтобы добавить комментарий.
Обратная связь
Copyleft ©