↑↓Torrent.by
Поиск
Логин: Регистрация
Пароль: Восстановить пароль
Загрузка...

2036, происхождение неизвестно / 2036 Origin Unknown (2018) BDRip-AVC от ExKinoRay | HDRezka Studio

Скачать 2036-proishozhdenie-neizvestno-origin-unknown-2018-bdrip-avc-ot-exkinoray-hdrezka-studio.torrent
U Магнитная ссылка Размер: 1.76 GB Раздают: 70 Качают: 47 Добавлен: 2018-08-08 21:00:26
2036, происхождение неизвестно / 2036 Origin Unknown (2018) BDRip-AVC от ExKinoRay | HDRezka Studio

Название: 2036, происхождение неизвестно
Оригинальное название: 2036 Origin Unknown
Год выхода: 2018
Жанр: фантастика
Режиссер: Хасраф Дулул
В ролях: Кэти Сакхофф, Джули Кокс, Стивен Кри, Рэй Фиарон, Изабелль Марлоу, Джо Уолтерс, Дэвид К.С. Тсе

О фильме: Космическая экспедиция обнаруживает на поверхности Марса нечто, способное изменить жизнь человечества навсегда. Но вместо того, чтобы помочь людям раскрыть марсианскую тайну, искусственный интеллект на борту корабля берёт управление на себя.

 
Страна: Великобритания
Студия: Head Gear Films, Metrol Technology, Origin Unknown Films
Продолжительность: 01:34:41
Перевод: Профессиональный многоголосый | HDRezka Studio

Формат: MKV
Качество: BDRip-AVC
Видео: MPEG-4 AVC, 1024x428 (2.40:1), 23.976 fps, 2015 Kbps, 0.192 bit/pixel
Аудио #01: 48 kHz, AC3, 2.0, 192 Kbps | RUS |
Аудио #02: 48 kHz, AC3, 5.1, 448 Kbps | Оригинал |  ENG |
Субтитры: Aнглийские

Без какой-либо рекламы.

Релиз:

Автор релиза:


[+] ОтчетМедиаИнфо
General
Unique ID                                : 189737934137058270411232193560685735921 (0x8EBE3267A665E16BAB3A1D9CDC1A6FF1)
Complete name                            : D:2036.Origin.Unknown.2018.MVO.BDRip.AVC.ExKinoRay.mkv
Format                                   : Matroska
Format version                           : Version 2
File size                                : 1.76 GiB
Duration                                 : 1 h 34 min
Overall bit rate                         : 2 656 kb/s
Movie name                               : 2036 Origin Unknown 2018 from ExKinoRay
Encoded date                             : UTC 2018-08-08 13:09:05
Writing application                      : mkvmerge v5.6.0 ('Kenya Kane') built on May 27 2012 16:44:04
Writing library                          : libebml v1.2.3 + libmatroska v1.3.0

Video
ID                                       : 1
Format                                   : AVC
Format/Info                              : Advanced Video Codec
Format profile                           : High@L4.1
Format settings, CABAC                   : Yes
Format settings, ReFrames                : 12 frames
Codec ID                                 : V_MPEG4/ISO/AVC
Duration                                 : 1 h 34 min
Bit rate                                 : 2 015 kb/s
Width                                    : 1 024 pixels
Height                                   : 428 pixels
Display aspect ratio                     : 2.40:1
Frame rate mode                          : Constant
Frame rate                               : 23.976 (23976/1000) FPS
Color space                              : YUV
Chroma subsampling                       : 4:2:0
Bit depth                                : 8 bits
Scan type                                : Progressive
Bits/(Pixel*Frame)                       : 0.192
Stream size                              : 1.30 GiB (74%)
Title                                    : Enigma
Writing library                          : x264 core 152 r2851 ba24899
Encoding settings                        : cabac=1 / ref=12 / deblock=1:-2:-2 / analyse=0x3:0x113 / me=umh / subme=11 / psy=1 / psy_rd=1.00:0.10 / mixed_ref=1 / me_range=32 / chroma_me=1 / trellis=2 / 8x8dct=1 / cqm=0 / deadzone=21,11 / fast_pskip=0 / chroma_qp_offset=-3 / threads=12 / lookahead_threads=3 / sliced_threads=0 / nr=0 / decimate=0 / interlaced=0 / bluray_compat=0 / constrained_intra=0 / bframes=14 / b_pyramid=2 / b_adapt=2 / b_bias=0 / direct=3 / weightb=1 / open_gop=0 / weightp=2 / keyint=240 / keyint_min=23 / scenecut=40 / intra_refresh=0 / rc_lookahead=40 / rc=2pass / mbtree=0 / bitrate=2015 / ratetol=1.0 / qcomp=0.60 / qpmin=0 / qpmax=51 / qpstep=4 / cplxblur=20.0 / qblur=0.5 / vbv_maxrate=50000 / vbv_bufsize=62500 / nal_hrd=none / filler=0 / ip_ratio=1.40 / pb_ratio=1.30 / aq=3:0.80
Language                                 : English
Default                                  : Yes
Forced                                   : No
Color range                              : Limited
Color primaries                          : BT.709
Transfer characteristics                 : BT.709
Matrix coefficients                      : BT.709

Audio #1
ID                                       : 2
Format                                   : AC-3
Format/Info                              : Audio Coding 3
Mode extension                           : CM (complete main)
Format settings, Endianness              : Big
Codec ID                                 : A_AC3
Duration                                 : 1 h 34 min
Bit rate mode                            : Constant
Bit rate                                 : 192 kb/s
Channel(s)                               : 2 channels
Channel positions                        : Front: L R
Sampling rate                            : 48.0 kHz
Frame rate                               : 31.250 FPS (1536 spf)
Compression mode                         : Lossy
Stream size                              : 130 MiB (7%)
Title                                    : MVO
Language                                 : Russian
Default                                  : Yes
Forced                                   : No

Audio #2
ID                                       : 3
Format                                   : AC-3
Format/Info                              : Audio Coding 3
Mode extension                           : CM (complete main)
Format settings, Endianness              : Big
Codec ID                                 : A_AC3
Duration                                 : 1 h 34 min
Bit rate mode                            : Constant
Bit rate                                 : 448 kb/s
Channel(s)                               : 6 channels
Channel positions                        : Front: L C R, Side: L R, LFE
Sampling rate                            : 48.0 kHz
Frame rate                               : 31.250 FPS (1536 spf)
Compression mode                         : Lossy
Stream size                              : 303 MiB (17%)
Language                                 : English
Default                                  : No
Forced                                   : No

Text
ID                                       : 4
Format                                   : UTF-8
Codec ID                                 : S_TEXT/UTF8
Codec ID/Info                            : UTF-8 Plain Text
Language                                 : English
Default                                  : No
Forced                                   : No

Menu
00:00:00.000                             : en:00:00:00.000
00:08:47.277                             : en:00:08:47.277
00:16:59.227                             : en:00:16:59.227
00:24:26.090                             : en:00:24:26.090
00:33:56.159                             : en:00:33:56.159
00:43:15.760                             : en:00:43:15.760
00:50:27.149                             : en:00:50:27.149
00:57:13.639                             : en:00:57:13.639
01:05:53.199                             : en:01:05:53.199
01:15:06.127                             : en:01:15:06.127
01:25:14.026                             : en:01:25:14.026
01:32:17.574                             : en:01:32:17.574




Скриншоты:
[+] Всего файлов в раздаче - 1:
2036.Origin.Unknown.2018.MVO.BDRip.AVC.ExKinoRay.mkv1.76 GB

Текущая раздача:
ДатаКомментарии    РазмерПиры
2018-08-08 U 2036, происхождение неизвестно / 2036 Origin Unknown (2018) BDRip-AVC от ExKinoRay | HDRezka Studio 1.76 GB ↑ 70 ↓ 47

Показать еще раздачи по запросу происхождение:
2018-08-14 U Григорий Багриновский - Краткий этимологический словарь. Более 5000 слов, их происхождение и датировка (2018) PDF 2.92 MB ↑ 52 ↓ 0
2018-08-08 U 2036, происхождение неизвестно / 2036 Origin Unknown (2018) BDRip от MegaPeer | HDRezka Studio 1.46 GB ↑ 118 ↓ 16
2018-08-08 U 2036, происхождение неизвестно / 2036 Origin Unknown (2018) BDRemux 1080p от ExKinoRay | HDRezka Studio 15.88 GB ↑ 27 ↓ 33
2018-06-18 U 2036, происхождение неизвестно / 2036 Origin Unknown (2018) WEB-DLRip-AVC от ExKinoRay | HDRezka Studio 1.57 GB ↑ 67 ↓ 22
2018-06-18 U 2036, происхождение неизвестно / 2036 Origin Unknown (2018) WEB-DLRip-AVC | HDRezka Studio 742.28 MB ↑ 70 ↓ 16
2018-06-17 U 2036, происхождение неизвестно / 2036 Origin Unknown (2018) WEB-DLRip от MegaPeer | HDRezka Studio 1.46 GB ↑ 100 ↓ 82
2018-06-17 U 2036, происхождение неизвестно / 2036 Origin Unknown (2018) WEB-DL 1080p от ExKinoRay | HDRezka Studio 4.40 GB ↑ 189 ↓ 135

Отзывы
Зарегистрируйтесь чтобы добавить комментарий.
Обратная связь
Copyleft ©