↑↓Torrent.by
Поиск
Логин: Регистрация
Пароль: Восстановить пароль
Загрузка...

Логово Монстра / Bad Samaritan (2018) BDRemux 1080p от ExKinoRay | iTunes

Скачать logovo-monstra-bad-samaritan-2018-bdremux-1080p-ot-exkinoray-itunes.torrent
U Магнитная ссылка Размер: 21.49 GB Раздают: 27 Качают: 15 Добавлен: 2018-08-09 07:23:21
Логово Монстра / Bad Samaritan (2018) BDRemux 1080p от ExKinoRay | iTunes

Название: Логово Монстра
Оригинальное название: Bad Samaritan
Год выхода: 2018
Жанр: Ужасы, триллер
Режиссер: Дин Девлин
В ролях: Дэвид Теннант, Керри Кондон, Роберт Шиэн, Жаклин Байерс, Лиза Бреннер, Ханна Бэйрфут, Карлито Оливеро, Роб Нэгл, Дэна Милликэн, Тони Дуп

О фильме: Двое парней, работая парковщиками у элитного ресторана, успешно обчищают дома богатых посетителей, пока те наслаждаются изысканной кухней. Но однажды, вломившись в чужой особняк, кроме роскошной добычи они обнаруживают истерзанную пленницу. Пытаясь спасти девушку, они сами все глубже попадают в западню жестокого монстра.

Страна: США
Студия: Electric Entertainment
Продолжительность: 01:50:10
Перевод: Дублированный | iTunes

Качество: BDRemux 1080p
Видео: MPEG-4 AVC, 1920x1080, 24.9 Mbit/s, 23.976 fps
Звук:
Аудио #01: 48 kHz, AC3, 5.1, 384 Kbps | iTunes | RUS |
Аудио #02: 48 kHz, DTS-HD MA, 5.1, 2672 Kbps | Оригинал |  ENG |
Субтитры: Английские

Релиз:

Автор релиза:


[+] MI
General
Unique ID                   : 304836917643027962330881079098251245937 (0xE555746CBF20B81D0958DBB3DD717971)
Complete name               : D:Video111Bad.Samaritan.2018.BDREMUX.1080p.ExKinoRay.mkv
Format                      : Matroska
Format version              : Version 4 / Version 2
File size                   : 21.5 GiB
Duration                    : 1 h 50 min
Overall bit rate mode       : Variable
Overall bit rate            : 27.9 Mb/s
Movie name                  : Bad Samaritan 2018 from ExKinoRay
Encoded date                : UTC 2018-08-08 14:18:41
Writing application         : mkvmerge v23.0.0 ('The Bride Said No') 64-bit
Writing library             : libebml v1.3.6 + libmatroska v1.4.9

Video
ID                          : 1
Format                      : AVC
Format/Info                 : Advanced Video Codec
Format profile              : High@L4.1
Format settings             : CABAC / 2 Ref Frames
Format settings, CABAC      : Yes
Format settings, ReFrames   : 2 frames
Format settings, GOP        : M=1, N=10
Codec ID                    : V_MPEG4/ISO/AVC
Duration                    : 1 h 50 min
Bit rate mode               : Variable
Bit rate                    : 24.9 Mb/s
Width                       : 1 920 pixels
Height                      : 1 080 pixels
Display aspect ratio        : 16:9
Frame rate mode             : Constant
Frame rate                  : 23.976 (24000/1001) FPS
Color space                 : YUV
Chroma subsampling          : 4:2:0
Bit depth                   : 8 bits
Scan type                   : Progressive
Bits/(Pixel*Frame)          : 0.500
Stream size                 : 19.1 GiB (89%)
Language                    : English
Default                     : Yes
Forced                      : No

Audio #1
ID                          : 2
Format                      : AC-3
Format/Info                 : Audio Coding 3
Commercial name             : Dolby Digital
Codec ID                    : A_AC3
Duration                    : 1 h 50 min
Bit rate mode               : Constant
Bit rate                    : 384 kb/s
Channel(s)                  : 6 channels
Channel positions           : Front: L C R, Side: L R, LFE
Sampling rate               : 48.0 kHz
Frame rate                  : 31.250 FPS (1536 SPF)
Bit depth                   : 16 bits
Compression mode            : Lossy
Stream size                 : 302 MiB (1%)
Title                       : iTunes
Language                    : Russian
Service kind                : Complete Main
Default                     : Yes
Forced                      : Yes

Audio #2
ID                          : 3
Format                      : DTS
Format/Info                 : Digital Theater Systems
Format profile              : MA / Core
Codec ID                    : A_DTS
Duration                    : 1 h 50 min
Bit rate mode               : Variable / Constant
Bit rate                    : 2 672 kb/s / 1 509 kb/s
Channel(s)                  : 6 channels
Channel positions           : Front: L C R, Side: L R, LFE
Sampling rate               : 48.0 kHz
Frame rate                  : 93.750 FPS (512 SPF)
Bit depth                   : 24 bits
Compression mode            : Lossless / Lossy
Stream size                 : 2.06 GiB (10%)
Title                       : Original
Language                    : English
Default                     : No
Forced                      : No

Text
ID                          : 4
Format                      : UTF-8
Codec ID                    : S_TEXT/UTF8
Codec ID/Info               : UTF-8 Plain Text
Duration                    : 1 h 45 min
Bit rate                    : 49 b/s
Count of elements           : 1180
Stream size                 : 38.0 KiB (0%)
Language                    : English
Default                     : No
Forced                      : No

Menu
00:00:00.000                : en:00:00:00.000
00:06:21.047                : en:00:06:21.047
00:12:34.921                : en:00:12:34.921
00:20:14.171                : en:00:20:14.171
00:31:01.485                : en:00:31:01.485
00:39:04.133                : en:00:39:04.133
00:44:44.599                : en:00:44:44.599
00:48:39.917                : en:00:48:39.917
00:56:36.476                : en:00:56:36.476
01:02:38.880                : en:01:02:38.880
01:10:56.627                : en:01:10:56.627
01:17:26.100                : en:01:17:26.100
01:23:51.818                : en:01:23:51.818
01:27:36.418                : en:01:27:36.418
01:33:58.633                : en:01:33:58.633
01:41:45.099                : en:01:41:45.099



Скриншоты:
[+] Всего файлов в раздаче - 1:
Bad.Samaritan.2018.BDREMUX.1080p.ExKinoRay.mkv21.49 GB

Текущая раздача:
ДатаКомментарии    РазмерПиры
2018-08-09 U Логово Монстра / Bad Samaritan (2018) BDRemux 1080p от ExKinoRay | iTunes 21.49 GB ↑ 27 ↓ 15

Показать еще раздачи по запросу логово:
Вчера U Логово Монстра / Bad Samaritan (2018) BDRip-AVC от HELLYWOOD | iTunes 1.41 GB ↑ 36 ↓ 9
2018-08-12 U Логово Монстра / Bad Samaritan (2018) BDRip от ExKinoRay | iTunes 1.41 GB ↑ 64 ↓ 19
2018-08-10 U Логово Монстра / Bad Samaritan (2018) HDRip от Scarabey | iTunes 1.40 GB ↑ 46 ↓ 20
2018-08-09 U Логово Монстра / Bad Samaritan (2018) BDRip-AVC от OlLanDGroup | iTunes 1.92 GB ↑ 28 ↓ 17
2018-08-09 U Логово Монстра / Bad Samaritan (2018) BDRip 720p от ExKinoRay | iTunes 4.13 GB ↑ 76 ↓ 35
2018-08-09 U Логово Монстра / Bad Samaritan (2018) BDRip-AVC от ExKinoRay | iTunes 1.40 GB ↑ 22 ↓ 15
2018-08-09 U Логово Монстра / Bad Samaritan (2018) BDRip 1080p от ExKinoRay | iTunes 7.46 GB ↑ 34 ↓ 40

Отзывы
Зарегистрируйтесь чтобы добавить комментарий.
Обратная связь
Copyleft ©