↑↓Torrent.by
Поиск
Логин: Регистрация
Пароль: Восстановить пароль
Загрузка...

Охотник за головами / The Bounty Hunter (2010) WEB-DL 1080p | Open Matte | D, A

Скачать ohotnik-za-golovami-the-bounty-hunter-2010-web-dl-1080p-open-matte-d-a.torrent
U Магнитная ссылка Размер: 8.57 GB Раздают: 48 Качают: 7 Добавлен: 2018-08-09 07:24:04
Охотник за головами / The Bounty Hunter (2010) WEB-DL 1080p | Open Matte | D, A

Название: Охотник за головами
Оригинальное название: The Bounty Hunter
Год выхода: 2010
Жанр:  боевик, комедия, мелодрама, криминал
Режиссер: Энди Теннант / Andy Tennant
В ролях: Джерард Батлер, Дженнифер Энистон, Джио Перез, Джоэль Гарлэнд, Джейсон Колотурос, Мэтт Мэллой, Джейсон Судейкис, Адам Роуз, Кристин Барански, Дориан Миссик

О фильме:
Главный герой - Майло, бывший полицейский, а теперь охотник за головами, занимающийся розыском беглых преступников. Он получает задание найти и отправить в тюрьму журналистку Николь, сбежавшую из-под залога. Ирония ситуации в том, что Николь - бывшая жена Майло.

Страна: США
Продолжительность: 01:50:52
Перевод: Профессиональный (полное дублирование) - BluRay
Перевод 2: Авторский (одноголосый закадровый) - Ю. Немахов
Субтитры: русские (надписи), английские (SDH, Amazon)

Файл
Качество: WEB-DL 1080p | Amazon | "STARZ" | Open Matte
Формат: MKV
Видео: MPEG4 Video (H264) 1920x1080 23.976fps ~9401Kbps
Аудио #1: 48 kHz, AC3,3/2 (L,C,R,l,r) + LFE ch, ~640.00 kbps avg |Дубляж - BluRay|
Аудио #2: 48 kHz, AC3,3/2 (L,C,R,l,r) + LFE ch, ~384.00 kbps avg |Авторский, одноголосый - Ю. Немахов|
Аудио #3: 48 kHz E-AC3 3/2 (L,C,R,l,r) + LFE ch, ~640.00 kbps avg |Оригинал - Amazon|
Субтитры: SoftSub (SRT)

Blu-ray vs Open Matte


[+] M/I
General
Unique ID                                : 191608841564194114340987430905516144445 (0x90268543465E1DEEA0CD65642198373D)
Complete name                            : D:ВидеоHDThe.Bounty.Hunter.2010.Open.Matte.1080p.WEB-DL.2xRus.Eng.mkv
Format                                   : Matroska
Format version                           : Version 4 / Version 2
File size                                : 8.57 GiB
Duration                                 : 1 h 50 min
Overall bit rate mode                    : Variable
Overall bit rate                         : 11.1 Mb/s
Movie name                               : The.Bounty.Hunter.2010.Open.Matte.1080p.WEB-DL.2xRus.Eng-spartanec163
Encoded date                             : UTC 2018-06-23 08:42:29
Writing application                      : mkvmerge v8.3.0 ('Over the Horizon') 64bit
Writing library                          : libebml v1.3.1 + libmatroska v1.4.2

Video
ID                                       : 1
Format                                   : AVC
Format/Info                              : Advanced Video Codec
Format profile                           : High@L4
Format settings                          : CABAC / 4 Ref Frames
Format settings, CABAC                   : Yes
Format settings, RefFrames               : 4 frames
Codec ID                                 : V_MPEG4/ISO/AVC
Duration                                 : 1 h 50 min
Bit rate mode                            : Variable
Bit rate                                 : 9 401 kb/s
Maximum bit rate                         : 15.0 Mb/s
Width                                    : 1 920 pixels
Height                                   : 1 080 pixels
Display aspect ratio                     : 16:9
Frame rate mode                          : Constant
Frame rate                               : 23.976 (24000/1001) FPS
Color space                              : YUV
Chroma subsampling                       : 4:2:0
Bit depth                                : 8 bits
Scan type                                : Progressive
Bits/(Pixel*Frame)                       : 0.189
Stream size                              : 7.28 GiB (85%)
Title                                    : WEB-DL 1080p (Amazon)
Language                                 : English
Default                                  : Yes
Forced                                   : No
Color range                              : Limited
Color primaries                          : BT.709
Transfer characteristics                 : BT.709
Matrix coefficients                      : BT.709

Audio #1
ID                                       : 2
Format                                   : AC-3
Format/Info                              : Audio Coding 3
Codec ID                                 : A_AC3
Duration                                 : 1 h 50 min
Bit rate mode                            : Constant
Bit rate                                 : 640 kb/s
Channel(s)                               : 6 channels
Channel positions                        : Front: L C R, Side: L R, LFE
Sampling rate                            : 48.0 kHz
Frame rate                               : 31.250 FPS (1536 SPF)
Bit depth                                : 16 bits
Compression mode                         : Lossy
Stream size                              : 507 MiB (6%)
Title                                    : AC3 5.1 640Kbps (Дубляж - BluRay)
Language                                 : Russian
Service kind                             : Complete Main
Default                                  : Yes
Forced                                   : No

Audio #2
ID                                       : 3
Format                                   : AC-3
Format/Info                              : Audio Coding 3
Codec ID                                 : A_AC3
Duration                                 : 1 h 50 min
Bit rate mode                            : Constant
Bit rate                                 : 384 kb/s
Channel(s)                               : 6 channels
Channel positions                        : Front: L C R, Side: L R, LFE
Sampling rate                            : 48.0 kHz
Frame rate                               : 31.250 FPS (1536 SPF)
Bit depth                                : 16 bits
Compression mode                         : Lossy
Stream size                              : 304 MiB (3%)
Title                                    : AC3 5.1 384Kbps (Авторский, одноголосый - Ю. Немахов)
Language                                 : Russian
Service kind                             : Complete Main
Default                                  : No
Forced                                   : No

Audio #3
ID                                       : 4
Format                                   : E-AC-3
Format/Info                              : Enhanced Audio Coding 3
Codec ID                                 : A_EAC3
Duration                                 : 1 h 50 min
Bit rate mode                            : Constant
Bit rate                                 : 640 kb/s
Channel(s)                               : 6 channels
Channel positions                        : Front: L C R, Side: L R, LFE
Sampling rate                            : 48.0 kHz
Frame rate                               : 187.500 FPS (256 SPF)
Compression mode                         : Lossy
Stream size                              : 508 MiB (6%)
Title                                    : E-AC3 5.1 640Kbps (Оригинал - Amazon)
Language                                 : English
Service kind                             : Complete Main
Default                                  : No
Forced                                   : No

Text #1
ID                                       : 5
Format                                   : UTF-8
Codec ID                                 : S_TEXT/UTF8
Codec ID/Info                            : UTF-8 Plain Text
Duration                                 : 1 h 25 min
Bit rate                                 : 0 b/s
Count of elements                        : 9
Stream size                              : 549 Bytes (0%)
Title                                    : Надписи
Language                                 : Russian
Default                                  : No
Forced                                   : No

Text #2
ID                                       : 6
Format                                   : UTF-8
Codec ID                                 : S_TEXT/UTF8
Codec ID/Info                            : UTF-8 Plain Text
Duration                                 : 1 h 48 min
Bit rate                                 : 80 b/s
Count of elements                        : 2160
Stream size                              : 63.7 KiB (0%)
Title                                    : Полные, SDH, Amazon
Language                                 : English
Default                                  : No
Forced                                   : No



Скриншоты:
[+] Всего файлов в раздаче - 1:
The.Bounty.Hunter.2010.Open.Matte.1080p.WEB-DL.2xRus.Eng.mkv8.57 GB

Текущая раздача:
ДатаКомментарии    РазмерПиры
2018-08-09 U Охотник за головами / The Bounty Hunter (2010) WEB-DL 1080p | Open Matte | D, A 8.57 GB ↑ 48 ↓ 7

Показать еще раздачи по запросу охотник:
2018-08-11 U Охотник / The Tracker (2000) DVDRip | P2, A 1.45 GB ↑ 53 ↓ 19
2018-08-01 U Последний охотник на ведьм / The Last Witch Hunter (2015) BDRip-AVC от HELLYWOOD | Лицензия 2.18 GB ↑ 49 ↓ 18
2018-07-03 U Белый охотник, черное сердце / White Hunter Black Heart (1990) WEB-DLRip-AVC от Koenig | P 2.18 GB ↑ 52 ↓ 13
2018-03-17 U Охотник на драконов / Dragon Hunter (2017) HDTVRip 720p | L2 2.19 GB ↑ 100 ↓ 76
2018-03-06 U Охотник на демонов 4: Тайны Древнего Египта / Demon Hunter 4: Riddles of Light CE (2018) PC 1.11 GB ↑ 134 ↓ 25
2017-12-12 U За семью печатями 16: Ревенант охотник. Коллекционное издание (2017) PC 623.97 MB ↑ 49 ↓ 18
2017-12-10 U Андрей Буревой – Охотник 4. Лорд Пустошей (2017) MP3 924.58 MB ↑ 125 ↓ 19

Отзывы
Зарегистрируйтесь чтобы добавить комментарий.
Обратная связь
Copyleft ©