↑↓Torrent.by
Поиск
Логин: Регистрация
Пароль: Восстановить пароль
Загрузка...

Кассадага / Cassadaga (2011) BDRip 1080p | D

Скачать kassadaga-cassadaga-2011-bdrip-1080p-d.torrent
U Магнитная ссылка Размер: 9.21 GB Раздают: 26 Качают: 11 Добавлен: 2018-08-09 10:40:03
Кассадага / Cassadaga (2011) BDRip 1080p | D

Название: Кассадага
Оригинальное название: Cassadaga
Год выхода: 2011
Жанр: ужасы, триллер
Режиссер: Энтони ДиБлази
В ролях: Луиз Флетчер, Кевин Алехандро, Келен Коулмэн, Люсиус Бастон мл., Рас Блэквелл, Дж. ЛаРоуз, Брук Безик, Кристина Бах, Николас Вульф, Хэнк Стоун

О фильме:
Кассадага — название городка во Флориде, население которого составляет чуть больше 200 человек. Говорят, его населяют люди с паранормальными способностями, которым платят большие деньги за сеансы всегда стремящиеся попасть туда туристы. Фильм рассказывает о том, что не стоит вызывать души своих умерших сестер, как бы по ним не скучали родственники, потому что призраки не любят, когда их тревожат…

Страна: США
Продолжительность: 01:51:05
Перевод: Дублированный
Оригинальная аудиодорожка: английская

Файл
Качество: BDRip 1080p
Видео: MPEG-4 AVC, 9900 kbps, 1920x816
Аудио 1: Русский (AC3, 6 ch, 448 kbps)
Аудио 2: Английский (DTS, 6 ch, 1509 kbps)
Субтитры: нет


[+] MediaInfo
General
Unique ID                   : 16797320632697414774626977710419112188 (0xCA30BD8F41C420833E72F5C17B670FC)
Complete name               : =Kassadaga.2011.BDRip.1080p.mkv
Format                      : Matroska
Format version              : Version 2
File size                   : 9.21 GiB
Duration                    : 1h 51mn
Overall bit rate            : 11.9 Mbps
Encoded date                : UTC
Writing application         : HandBrake 0.10.2 2015060900
Writing library             : Lavf55.12.0

Video
ID                          : 1
Format                      : AVC
Format/Info                 : Advanced Video Codec
Format profile              : High@L4.1
Format settings, CABAC      : Yes
Format settings, ReFrames   : 5 frames
Codec ID                    : V_MPEG4/ISO/AVC
Bit rate                    : 9 900 Kbps
Width                       : 1 920 pixels
Height                      : 816 pixels
Display aspect ratio        : 2.35:1
Frame rate mode             : Variable
Color space                 : YUV
Chroma subsampling          : 4:2:0
Bit depth                   : 8 bits
Scan type                   : Progressive
Writing library             : x264 core 142 r2479 dd79a61
Encoding settings           : cabac=1 / ref=5 / deblock=1:-1:-1 / analyse=0x3:0x113 / me=umh / subme=8 / psy=1 / psy_rd=1.00:0.15 / mixed_ref=1 / me_range=16 / chroma_me=1 / trellis=1 / 8x8dct=1 / cqm=0 / deadzone=21,11 / fast_pskip=1 / chroma_qp_offset=-3 / threads=12 / lookahead_threads=2 / sliced_threads=0 / nr=0 / decimate=1 / interlaced=0 / bluray_compat=0 / constrained_intra=0 / bframes=3 / b_pyramid=2 / b_adapt=2 / b_bias=0 / direct=3 / weightb=1 / open_gop=0 / weightp=2 / keyint=240 / keyint_min=24 / scenecut=40 / intra_refresh=0 / rc_lookahead=50 / rc=2pass / mbtree=1 / bitrate=9900 / ratetol=1.0 / qcomp=0.60 / qpmin=0 / qpmax=69 / qpstep=4 / cplxblur=20.0 / qblur=0.5 / vbv_maxrate=62500 / vbv_bufsize=78125 / nal_hrd=none / filler=0 / ip_ratio=1.40 / aq=1:1.00
Default                     : Yes
Forced                      : No
Color range                 : Limited
Color primaries             : BT.709
Transfer characteristics    : BT.709
Matrix coefficients         : BT.709

Audio #1
ID                          : 2
Format                      : AC-3
Format/Info                 : Audio Coding 3
Mode extension              : CM (complete main)
Format settings, Endianness : Big
Codec ID                    : A_AC3
Duration                    : 1h 51mn
Bit rate mode               : Constant
Bit rate                    : 448 Kbps
Channel(s)                  : 6 channels
Channel positions           : Front: L C R, Side: L R, LFE
Sampling rate               : 48.0 KHz
Compression mode            : Lossy
Stream size                 : 356 MiB (4%)
Title                       : Surround
Language                    : Russian
Default                     : Yes
Forced                      : No

Audio #2
ID                          : 3
Format                      : DTS
Format/Info                 : Digital Theater Systems
Mode                        : 16
Format settings, Endianness : Big
Codec ID                    : A_DTS
Duration                    : 1h 51mn
Bit rate mode               : Constant
Bit rate                    : 1 509 Kbps
Channel(s)                  : 6 channels
Channel positions           : Front: L C R, Side: L R, LFE
Sampling rate               : 48.0 KHz
Bit depth                   : 24 bits
Compression mode            : Lossy
Stream size                 : 1.17 GiB (13%)
Title                       : Surround
Language                    : English
Default                     : No
Forced                      : No

Menu
00:00:00.000                : :Chapter 1
00:09:59.716                : :Chapter 2
00:19:59.607                : :Chapter 3
00:29:59.748                : :Chapter 4
00:39:59.848                : :Chapter 5
00:49:59.322                : :Chapter 6
01:00:59.856                : :Chapter 7
01:14:59.695                : :Chapter 8
01:24:59.670                : :Chapter 9
01:39:59.819                : :Chapter 10
01:45:59.011                : :Chapter 11



Скриншоты:
[+] Всего файлов в раздаче - 1:
Kassadaga.2011.BDRip.1080p.mkv9.21 GB

Отзывы
Зарегистрируйтесь чтобы добавить комментарий.
Обратная связь
Copyleft ©