↑↓Torrent.by
Поиск
Логин: Регистрация
Пароль: Восстановить пароль
Загрузка...

Расхитительница гробниц / Tomb Invader (2018) HDRip 1080p | GreenРай Studio

Скачать rashititelnica-grobnic-tomb-invader-2018-hdrip-1080p-greenray-studio.torrent
U Магнитная ссылка Размер: 7.62 GB Раздают: 29 Качают: 36 Добавлен: 2018-08-09 10:40:07
Расхитительница гробниц / Tomb Invader (2018) HDRip 1080p | GreenРай Studio

Год выхода: 2018
Наименование: Расхитительница гробниц
Оригинальное наименование: Tomb Invader
Страна: США
Жанр:  боевик, приключения
Режиссер постановщик: Джеймс Томас
В главных ролях: Джина Витори, Саманта Боулинг, Эндрю Джей Катерс, Ивэн Слоун Вайнштейн, Шон Макконнелл, Тэмми Клейн, Кейт Уотсон

О фильме: Загадочный миллиардер нанимает археолога Алабаму Ченнинг найти древнее китайское сокровище. Именно его искала ее мать перед тем, как пропала без вести.

Файл
Качество:  HDRip 1080p
Видео данные: MKV, 1920x1080 (16:9), 23.976 fps, 12100 Кбит/с
Аудио данные: AC3, 2 ch, 640 Кбит/с
Перевод: Любительский многоголосый (GreenРай Studio)
Продолжительность: 01:23:59

Внимание, имеется  видео и аудио реклама от спонсора показа

Релиз:


[+] Медиаинфо
General
Unique ID                                : 223673200185628139357164146413422958725 (0xA845E432C0FBDE24B4AC7372028ED885)
Complete name                            : E:ГРИНРАЙTomb.Invader.2018.P.BDRip.1080p.mkv
Format                                   : Matroska
Format version                           : Version 4 / Version 2
File size                                : 7.62 GiB
Duration                                 : 1 h 23 min
Overall bit rate                         : 13.0 Mb/s
Encoded date                             : UTC 2018-08-08 06:26:30
Writing application                      : mkvmerge v6.5.0 ('Isn't she lovely') built on Oct 20 2013 12:50:05
Writing library                          : libebml v1.3.0 + libmatroska v1.4.1

Video
ID                                       : 1
Format                                   : AVC
Format/Info                              : Advanced Video Codec
Format profile                           : High@L3.1
Format settings                          : CABAC / 4 Ref Frames
Format settings, CABAC                   : Yes
Format settings, RefFrames               : 4 frames
Codec ID                                 : V_MPEG4/ISO/AVC
Duration                                 : 1 h 23 min
Bit rate                                 : 12.1 Mb/s
Width                                    : 1 920 pixels
Height                                   : 1 080 pixels
Display aspect ratio                     : 16:9
Frame rate mode                          : Constant
Frame rate                               : 23.976 (23976/1000) FPS
Color space                              : YUV
Chroma subsampling                       : 4:2:0
Bit depth                                : 8 bits
Scan type                                : Progressive
Bits/(Pixel*Frame)                       : 0.243
Stream size                              : 7.10 GiB (93%)
Writing library                          : x264 core 146 r2538 121396c
Encoding settings                        : cabac=1 / ref=1 / deblock=1:0:0 / analyse=0x3:0x113 / me=hex / subme=2 / psy=1 / psy_rd=1.00:0.00 / mixed_ref=0 / me_range=16 / chroma_me=1 / trellis=0 / 8x8dct=1 / cqm=0 / deadzone=21,11 / fast_pskip=1 / chroma_qp_offset=0 / threads=9 / lookahead_threads=3 / sliced_threads=0 / nr=0 / decimate=1 / interlaced=0 / bluray_compat=0 / constrained_intra=0 / bframes=3 / b_pyramid=2 / b_adapt=1 / b_bias=0 / direct=1 / weightb=1 / open_gop=0 / weightp=1 / keyint=250 / keyint_min=23 / scenecut=40 / intra_refresh=0 / rc_lookahead=10 / rc=crf / mbtree=1 / crf=16.5 / qcomp=0.60 / qpmin=0 / qpmax=69 / qpstep=4 / ip_ratio=1.40 / aq=1:1.00
Default                                  : Yes
Forced                                   : No

Audio
ID                                       : 2
Format                                   : AC-3
Format/Info                              : Audio Coding 3
Codec ID                                 : A_AC3
Duration                                 : 1 h 23 min
Bit rate mode                            : Constant
Bit rate                                 : 640 kb/s
Channel(s)                               : 2 channels
Channel positions                        : Front: L R
Sampling rate                            : 48.0 kHz
Frame rate                               : 31.250 FPS (1536 SPF)
Bit depth                                : 16 bits
Compression mode                         : Lossy
Stream size                              : 384 MiB (5%)
Service kind                             : Complete Main
Default                                  : Yes
Forced                                   : No



Скриншоты:
[+] Всего файлов в раздаче - 1:
Tomb.Invader.2018.P.BDRip.1080p.mkv7.62 GB

Текущая раздача:
ДатаКомментарии    РазмерПиры
2018-08-09 U Расхитительница гробниц / Tomb Invader (2018) HDRip 1080p | GreenРай Studio 7.62 GB ↑ 29 ↓ 36

Похожие раздачи по запросу - расхитительница:
2018-08-09 U Расхитительница гробниц / Tomb Invader (2018) HDRip 720p | GreenРай Studio 3.85 GB ↑ 30 ↓ 22
2018-08-09 U Расхитительница гробниц / Tomb Invader (2018) HDRip | GreenРай Studio 1.37 GB ↑ 64 ↓ 34
2013-11-07 U Лара Крофт: Расхитительница гробниц / Lara Croft: Tomb Raider (2001) BDRip от HQCLUB 2К2.18 GB ↑ 207 ↓ 10

Отзывы
Зарегистрируйтесь чтобы добавить комментарий.
Обратная связь
Copyleft ©