↑↓Torrent.by
Поиск
Логин: Регистрация
Пароль: Восстановить пароль
Загрузка...

Ловушка времени / Time Trap (2017) HDTVRip 720p | GreenРай Studio

Скачать lovushka-vremeni-time-trap-2017-hdtvrip-720p-greenray-studio.torrent
U Магнитная ссылка Размер: 2.18 GB Раздают: 496 Качают: 101 Добавлен: 2018-08-10 06:48:59
Ловушка времени / Time Trap (2017) HDTVRip 720p | GreenРай Studio

Год выхода: 2017
Наименование: Ловушка времени
Оригинальное наименование: Time Trap
Страна: США
Жанр:  фантастика, боевик, приключения
Режиссер постановщик: Марк Деннис, Бен Фостер
В главных ролях: Эндрю Уилсон, Кэссиди Гиффорд, Брианна Хоуи, Рейли МакКлендон, Оливия Драгусевич, Макс Райт, Ганс Марреро, Рич Скидмор, Крис Старджон, Гопал Бидари

О фильме: Группа студентов отправляются в пещеры Техаса, чтобы найти своего любимого преподавателя по археологии, пропавшего без вести некоторое время назад. Ребята уверены, что он нуждается в помощи, а раз спасатели не смогут оперативно выполнить эту работу, то у них не остается выбора. Студенты готовы рисковать собственными жизнями ради спасения своего преподавателя. Кроме того, их интересует его необычная теория, которая гласит, что в этих местах может находиться истинный источник молодости.

Файл
Качество: HDTVRip 720p
Видео данные: MKV, 1280x700 (1.85:1), 23.976 fps, 3495 Кбит/с
Аудио данные: AAC, 2 ch, 192 Кбит/с
Перевод: Любительский многоголосый (GreenРай Studio)
Продолжительность: 01:24:45

Внимание, имеется  видео и аудио реклама от спонсора показа

Релиз:


[+] Медиаинфо
General
Unique ID                                : 158588276759315388423687892997631812190 (0x774EFDB8FD1B95ED83014A265B0EA25E)
Complete name                            : D:ГРИНРАЙTime.Trap.2017.P.HDTV.720p.mkv
Format                                   : Matroska
Format version                           : Version 4 / Version 2
File size                                : 2.18 GiB
Duration                                 : 1 h 24 min
Overall bit rate                         : 3 687 kb/s
Encoded date                             : UTC 2018-08-02 07:21:47
Writing application                      : mkvmerge v25.0.0 ('Prog Noir') 64-bit
Writing library                          : libebml v1.3.6 + libmatroska v1.4.9

Video
ID                                       : 1
Format                                   : AVC
Format/Info                              : Advanced Video Codec
Format profile                           : High@L3.1
Format settings                          : CABAC / 1 Ref Frames
Format settings, CABAC                   : Yes
Format settings, RefFrames               : 1 frame
Format settings, GOP                     : M=1, N=30
Codec ID                                 : V_MPEG4/ISO/AVC
Duration                                 : 1 h 24 min
Bit rate                                 : 3 495 kb/s
Width                                    : 1 280 pixels
Height                                   : 700 pixels
Display aspect ratio                     : 1.85:1
Frame rate mode                          : Constant
Frame rate                               : 23.976 (24000/1001) FPS
Color space                              : YUV
Chroma subsampling                       : 4:2:0
Bit depth                                : 8 bits
Scan type                                : Progressive
Bits/(Pixel*Frame)                       : 0.163
Stream size                              : 2.07 GiB (95%)
Language                                 : English
Default                                  : Yes
Forced                                   : No

Audio
ID                                       : 2
Format                                   : AAC
Format/Info                              : Advanced Audio Codec
Format profile                           : LC
Codec ID                                 : A_AAC-2
Duration                                 : 1 h 24 min
Bit rate                                 : 192 kb/s
Channel(s)                               : 2 channels
Channel positions                        : Front: L R
Sampling rate                            : 48.0 kHz
Frame rate                               : 46.875 FPS (1024 SPF)
Compression mode                         : Lossy
Stream size                              : 115 MiB (5%)
Language                                 : English
Default                                  : Yes
Forced                                   : No



Скриншоты:
[+] Всего файлов в раздаче - 1:
Time.Trap.2017.P.HDTV.720p.mkv2.18 GB

Текущая раздача:
ДатаКомментарии    РазмерПиры
2018-08-10 U Ловушка времени / Time Trap (2017) HDTVRip 720p | GreenРай Studio 2.18 GB ↑ 496 ↓ 101

Показать еще раздачи по запросу ловушка:
2018-08-10 U Ловушка времени / Time Trap (2017) HDTVRip GreenРай Studio 1.37 GB ↑ 242 ↓ 80
2018-08-07 U Ловушка для ведьм / Witchtrap (1989) BDRip | A 1.45 GB ↑ 22 ↓ 12
2018-04-04 U Ловушка для кошек 2: Кот Апокалипсиса / Macskafogó 2 - A sátán macskája (2007) DVDRip-AVC от ExKinoRay | D 746.90 MB ↑ 175 ↓ 14
2018-04-03 U Ловушка для кошек / Macskafogó (1986) DVDRip-AVC от ExKinoRay | D 746.72 MB ↑ 296 ↓ 24
2017-07-23 U Ловушка / The Snare (2017) WEB-DLRip | L 1.21 GB ↑ 56 ↓ 30
2017-07-23 U Ловушка / The Snare (2017) WEB-DLRip 720p | L 2.63 GB ↑ 86 ↓ 40
2017-07-07 U Ловушка / A Kind of Murder (2016) BDRip-AVC от HELLYWOOD | iTunes 1.42 GB ↑ 164 ↓ 35

Отзывы
Зарегистрируйтесь чтобы добавить комментарий.
Обратная связь
Copyleft ©