↑↓Torrent.by
Поиск
Логин: Регистрация
Пароль: Восстановить пароль
Загрузка...

Высшая сила / Higher Power (2018) HDRip 720p | GreenРай Studio

Скачать vysshaya-sila-higher-power-2018-hdrip-720p-greenray-studio.torrent
U Магнитная ссылка Размер: 3.83 GB Раздают: 72 Качают: 26 Добавлен: 2018-08-10 06:49:40
Высшая сила / Higher Power (2018) HDRip 720p | GreenРай Studio

Год выхода: 2018
Наименование: Высшая сила
Оригинальное наименование: Higher Power
Страна: США
Жанр:  фантастика, боевик, триллер
Режиссер постановщик: Мэттью Санторо
В главных ролях: Джордан Хинсон, Остин Стоуэлл, Рон Элдард, Колм Фиор, Джейд Тейлор, Уинстон Джеймс Френсис, Омар Дум, Линк Хэнд, Мариэль Джаффе, Ричард Портноу

О фильме: Вселенная находится на грани разрушения. Джозеф Стедман решает принести себя в жертву, участвуя в эксперименте безумного учёного, который сможет спасти мир или ускорить его гибель.

Файл
Качество: HDRip 720p
Видео данные: MKV, 1280x536 (2.40:1), 23.976 fps, 5205 Кбит/с
Аудио данные:  AC3, 6 ch, 640 Кбит/с
Перевод: Любительский многоголосый (GreenРай Studio)
Продолжительность: 01:33:41

Внимание, имеется  видео и аудио реклама от спонсора показа

Релиз:


[+] Медиаинфо
General
Unique ID                                : 208515716290550210993252496555250544474 (0x9CDEAA8B4AD6A7B4A988A0441ADBEF5A)
Complete name                            : D:ГРИНРАЙHigher.Power.2018.P.BDRip.720p.mkv
Format                                   : Matroska
Format version                           : Version 4 / Version 2
File size                                : 3.83 GiB
Duration                                 : 1 h 33 min
Overall bit rate                         : 5 847 kb/s
Encoded date                             : UTC 2018-08-01 10:53:53
Writing application                      : mkvmerge v8.3.0 ('Over the Horizon') 64bit
Writing library                          : libebml v1.3.1 + libmatroska v1.4.2

Video
ID                                       : 1
Format                                   : AVC
Format/Info                              : Advanced Video Codec
Format profile                           : High@L3.1
Format settings                          : CABAC / 4 Ref Frames
Format settings, CABAC                   : Yes
Format settings, RefFrames               : 4 frames
Codec ID                                 : V_MPEG4/ISO/AVC
Duration                                 : 1 h 33 min
Bit rate                                 : 5 205 kb/s
Width                                    : 1 280 pixels
Height                                   : 536 pixels
Display aspect ratio                     : 2.40:1
Frame rate mode                          : Constant
Frame rate                               : 23.976 (24000/1001) FPS
Color space                              : YUV
Chroma subsampling                       : 4:2:0
Bit depth                                : 8 bits
Scan type                                : Progressive
Bits/(Pixel*Frame)                       : 0.316
Stream size                              : 3.41 GiB (89%)
Writing library                          : x264 core 146 r2538 121396c
Encoding settings                        : cabac=1 / ref=1 / deblock=1:0:0 / analyse=0x3:0x113 / me=hex / subme=2 / psy=1 / psy_rd=1.00:0.00 / mixed_ref=0 / me_range=16 / chroma_me=1 / trellis=0 / 8x8dct=1 / cqm=0 / deadzone=21,11 / fast_pskip=1 / chroma_qp_offset=0 / threads=18 / lookahead_threads=4 / sliced_threads=0 / nr=0 / decimate=1 / interlaced=0 / bluray_compat=0 / constrained_intra=0 / bframes=3 / b_pyramid=2 / b_adapt=1 / b_bias=0 / direct=1 / weightb=1 / open_gop=0 / weightp=1 / keyint=250 / keyint_min=23 / scenecut=40 / intra_refresh=0 / rc_lookahead=10 / rc=crf / mbtree=1 / crf=14.1 / qcomp=0.60 / qpmin=0 / qpmax=69 / qpstep=4 / ip_ratio=1.40 / aq=1:1.00
Default                                  : Yes
Forced                                   : No

Audio
ID                                       : 2
Format                                   : AC-3
Format/Info                              : Audio Coding 3
Codec ID                                 : A_AC3
Duration                                 : 1 h 33 min
Bit rate mode                            : Constant
Bit rate                                 : 640 kb/s
Channel(s)                               : 2 channels
Channel positions                        : Front: L R
Sampling rate                            : 48.0 kHz
Frame rate                               : 31.250 FPS (1536 SPF)
Bit depth                                : 16 bits
Compression mode                         : Lossy
Stream size                              : 429 MiB (11%)
Service kind                             : Complete Main
Default                                  : Yes
Forced                                   : No



Скриншоты:
[+] Всего файлов в раздаче - 1:
Higher.Power.2018.P.BDRip.720p.mkv3.83 GB

Текущая раздача:
ДатаКомментарии    РазмерПиры
2018-08-10 U Высшая сила / Higher Power (2018) HDRip 720p | GreenРай Studio 3.83 GB ↑ 72 ↓ 26

Показать еще раздачи по запросу высшая:
2018-10-21 U КВН-2018. Высшая лига. 1/2 финала. Игра вторая [21.10] (2018) HDTV 1080i от GeneralFilm 10.72 GB ↑ 150 ↓ 129
2018-10-21 U КВН-2018. Высшая лига. 1/2 финала. Игра вторая [21.10] (2018) HDTVRip от GeneralFilm 1К1.66 GB ↑ 366 ↓ 247
2018-10-15 U КВН-2018. Высшая лига. 1/2 финала. Игра первая [14.10] (2018) HDTV 1080i от GeneralFilm 7.24 GB ↑ 335 ↓ 63
2018-10-15 U КВН-2018. Высшая лига. 1/2 финала. Игра первая [14.10] (2018) HDTVRip от GeneralFilm 1.53 GB ↑ 931 ↓ 242
2018-08-10 U Высшая сила / Higher Power (2018) HDRip 1080p | GreenРай Studio 6.71 GB ↑ 68 ↓ 29
2018-08-10 U Высшая сила / Higher Power (2018) HDRip | GreenРай Studio 1.37 GB ↑ 153 ↓ 51
2018-05-31 U КВН-2018. Высшая лига. 1/4 финала. Игра третья [эфир от 27.05] (2018) HDTVRip 1.49 GB ↑ 844 ↓ 82

Отзывы
Зарегистрируйтесь чтобы добавить комментарий.
Обратная связь
Copyleft ©