↑↓Torrent.by
Поиск
Логин: Регистрация
Пароль: Восстановить пароль
Загрузка...

Амазонские приключения / Amazon Obhijaan (2017) WEBRip 720p | GreenРай Studio

Скачать amazonskie-priklyucheniya-amazon-obhijaan-2017-webrip-720p-greenray-studio.torrent
U Магнитная ссылка Размер: 3.57 GB Раздают: 226 Качают: 92 Добавлен: 2018-08-10 15:06:07
Амазонские приключения / Amazon Obhijaan (2017) WEBRip 720p | GreenРай Studio

Год выхода: 2017
Наименование: Амазонские приключения
Оригинальное наименование: Amazon Obhijaan
Страна: Индия
Жанр:  боевик, приключения
Режиссер постановщик: Камалешвар Мукхерджи
В главных ролях: Дев, Дэвид Джеймс, Светлана Гулакова, Лабони Саркар, Тамаль Рэй Ховдури, Эдуардо Муниз, Рони Факкини, Марджори Жерарди, Фелипе Монтанари, Эдуардо Семирян

О фильме: Авантюрист Шанкар в компании девушки Анны и её отца отправляется в амазонские леса Бразилии, чтобы отыскать золотые рудники и мифический город Эльдорадо.

Файл
Качество:  WEBRip 720p
Видео данные: MKV, 1280x544 (2.35:1), 23.976 fps, 3231 Кбит/с
Аудио данные: AC3, 2 ch, 384 Кбит/с
Перевод: Любительский многоголосый (GreenРай Studio)
Продолжительность: 02:18:37

Внимание, имеется  видео и аудио реклама от спонсора показа

Релиз:


[+] Медиаинфо
General
Unique ID                                : 223684726369354299890013657082357137643 (0xA8481C7BA53EDF3884936416C718C0EB)
Complete name                            : E:ГРИНРАЙAmazon.Obhijaan.2017.P.WEBRip.720p.mkv
Format                                   : Matroska
Format version                           : Version 4 / Version 2
File size                                : 3.57 GiB
Duration                                 : 2 h 18 min
Overall bit rate                         : 3 689 kb/s
Encoded date                             : UTC 2018-08-09 10:47:22
Writing application                      : mkvmerge v6.5.0 ('Isn't she lovely') built on Oct 20 2013 12:50:05
Writing library                          : libebml v1.3.0 + libmatroska v1.4.1

Video
ID                                       : 1
Format                                   : AVC
Format/Info                              : Advanced Video Codec
Format profile                           : High@L3.1
Format settings                          : CABAC / 4 Ref Frames
Format settings, CABAC                   : Yes
Format settings, RefFrames               : 4 frames
Codec ID                                 : V_MPEG4/ISO/AVC
Duration                                 : 2 h 18 min
Bit rate                                 : 3 231 kb/s
Width                                    : 1 280 pixels
Height                                   : 544 pixels
Display aspect ratio                     : 2.35:1
Frame rate mode                          : Constant
Frame rate                               : 23.976 FPS
Color space                              : YUV
Chroma subsampling                       : 4:2:0
Bit depth                                : 8 bits
Scan type                                : Progressive
Bits/(Pixel*Frame)                       : 0.194
Stream size                              : 3.13 GiB (88%)
Writing library                          : x264 core 146 r2538 121396c
Encoding settings                        : cabac=1 / ref=1 / deblock=1:0:0 / analyse=0x3:0x113 / me=hex / subme=2 / psy=1 / psy_rd=1.00:0.00 / mixed_ref=0 / me_range=16 / chroma_me=1 / trellis=0 / 8x8dct=1 / cqm=0 / deadzone=21,11 / fast_pskip=1 / chroma_qp_offset=0 / threads=9 / lookahead_threads=3 / sliced_threads=0 / nr=0 / decimate=1 / interlaced=0 / bluray_compat=0 / constrained_intra=0 / bframes=3 / b_pyramid=2 / b_adapt=1 / b_bias=0 / direct=1 / weightb=1 / open_gop=0 / weightp=1 / keyint=250 / keyint_min=23 / scenecut=40 / intra_refresh=0 / rc_lookahead=10 / rc=crf / mbtree=1 / crf=21.0 / qcomp=0.60 / qpmin=0 / qpmax=69 / qpstep=4 / ip_ratio=1.40 / aq=1:1.00
Language                                 : English
Default                                  : Yes
Forced                                   : No

Audio
ID                                       : 2
Format                                   : AC-3
Format/Info                              : Audio Coding 3
Codec ID                                 : A_AC3
Duration                                 : 2 h 18 min
Bit rate mode                            : Constant
Bit rate                                 : 384 kb/s
Channel(s)                               : 2 channels
Channel positions                        : Front: L R
Sampling rate                            : 48.0 kHz
Frame rate                               : 31.250 FPS (1536 SPF)
Bit depth                                : 16 bits
Compression mode                         : Lossy
Stream size                              : 381 MiB (10%)
Service kind                             : Complete Main
Default                                  : Yes
Forced                                   : No



Скриншоты:
[+] Всего файлов в раздаче - 1:
Amazon.Obhijaan.2017.P.WEBRip.720p.mkv3.57 GB

Текущая раздача:
ДатаКомментарии    РазмерПиры
2018-08-10 U Амазонские приключения / Amazon Obhijaan (2017) WEBRip 720p | GreenРай Studio 3.57 GB ↑ 226 ↓ 92

Похожие раздачи по запросу - амазонские:
2018-08-10 U Амазонские приключения / Amazon Obhijaan (2017) WEBRip 1080p | GreenРай Studio 6.32 GB ↑ 68 ↓ 57

Отзывы
Зарегистрируйтесь чтобы добавить комментарий.
Обратная связь
Copyleft ©