↑↓Torrent.by
Поиск
Логин: Регистрация
Пароль: Восстановить пароль
Загрузка...

Жажда смерти / Death Wish (2018) BDRip 1080p от ExKinoRay | D, A | iTunes

Скачать zhazhda-smerti-death-wish-2018-bdrip-1080p-ot-exkinoray-d-a-itunes.torrent
U Магнитная ссылка Размер: 11.71 GB Раздают: 59 Качают: 34 Добавлен: 2018-08-10 15:06:28
Жажда смерти / Death Wish (2018) BDRip 1080p от ExKinoRay | D, A | iTunes

Название: Жажда смерти
Оригинальное название: Death Wish
Год выхода: 2018
Жанр: Боевик, триллер, криминал
Режиссер: Элай Рот
В ролях: Брюс Уиллис, Винсент Д`Онофрио, Элизабет Шу, Камила Морроне, Дин Норрис, Бо Напп, Кимберли Элиз, Лен Кариу, Джек Кеси, Ронни Джин Блевинс

О фильме: Пол Керси - хирург, привыкший вытаскивать людей с того света после криминальных разборок. Но после того, как его жена и дочь становятся жертвами уличной банды, а полиция бездействует, он берет карающий меч правосудия в свои руки. Видео изобретательных убийств преступников покоряют интернет-топы, а среди жителей города расходятся слухи о неуловимом народном мстителе, которому теперь принадлежит весь город. Он мстит бодро, весело и со вкусом.

Страна: США,
Студия: Metro-Goldwyn-Mayer (MGM), Paramount Pictures
Продолжительность: 01:46:03
Перевод(ы):
#1: Дублированный | iTunes
#2: Авторский | Михаил Чадов

Качество: BDRip 1080p
Видео: MPEG-4 AVC, 1920x800, 14.0 Mbit/s, 23.976 fps
Звук:
Аудио #01: 48 kHz, AC3, 5.1, 384 Kbps | Дублированный | RUS |
Аудио #02: 48 kHz, AC3, 5.1, 640 Kbps | Авторский | RUS |
Аудио #03: 48 kHz, AC3, 5.1, 640 Kbps | Оригинал |  ENG |
Субтитры: Русские (full), английские

Релиз:

Автор релиза:


[+] MI
General
Unique ID                   : 238100157008023823721990359568604305412 (0xB3206C163FF5362D9EA27292EA959804)
Complete name               : D:Video111Death.Wish.2018.D.AVO.BDRip.1080p.ExKinoRay.mkv
Format                      : Matroska
Format version              : Version 4 / Version 2
File size                   : 11.7 GiB
Duration                    : 1 h 46 min
Overall bit rate            : 15.7 Mb/s
Movie name                  : Death Wish 2018 from ExKinoRay
Encoded date                : UTC 2018-08-09 22:28:22
Writing application         : mkvmerge v7.3.0 ('Nouages') 64bit built on Oct 22 2014 18:53:34
Writing library             : libebml v1.3.0 + libmatroska v1.4.1

Video
ID                          : 1
Format                      : AVC
Format/Info                 : Advanced Video Codec
Format profile              : High@L4.1
Format settings             : CABAC / 5 Ref Frames
Format settings, CABAC      : Yes
Format settings, ReFrames   : 5 frames
Codec ID                    : V_MPEG4/ISO/AVC
Duration                    : 1 h 46 min
Bit rate                    : 14.0 Mb/s
Width                       : 1 920 pixels
Height                      : 800 pixels
Display aspect ratio        : 2.40:1
Frame rate mode             : Constant
Frame rate                  : 23.976 (24000/1001) FPS
Color space                 : YUV
Chroma subsampling          : 4:2:0
Bit depth                   : 8 bits
Scan type                   : Progressive
Bits/(Pixel*Frame)          : 0.381
Stream size                 : 10.5 GiB (89%)
Writing library             : x264 core 142 r2431+42 c69a006 tMod [8-bit@all X86_64]
Encoding settings           : cabac=1 / ref=5 / deblock=1:-3:-3 / analyse=0x3:0x133 / me=umh / subme=11 / psy=1 / fade_compensate=0.00 / psy_rd=1.05:0.05 / mixed_ref=1 / me_range=64 / chroma_me=1 / trellis=2 / 8x8dct=1 / cqm=0 / deadzone=21,11 / fast_pskip=0 / chroma_qp_offset=-1 / threads=12 / lookahead_threads=3 / sliced_threads=0 / nr=0 / decimate=0 / interlaced=0 / bluray_compat=0 / constrained_intra=0 / fgo=0 / bframes=10 / b_pyramid=2 / b_adapt=2 / b_bias=0 / direct=3 / weightb=1 / open_gop=0 / weightp=2 / keyint=250 / keyint_min=23 / scenecut=40 / intra_refresh=0 / rc_lookahead=100 / rc=crf / mbtree=0 / crf=15.5000 / qcomp=0.75 / qpmin=0:0:0 / qpmax=69:69:69 / qpstep=4 / vbv_maxrate=50000 / vbv_bufsize=50000 / crf_max=0.0 / nal_hrd=none / filler=0 / ip_ratio=1.40 / pb_ratio=1.30 / aq=1:0.80 / aq-sensitivity=10.00 / aq-factor=1.00:1.00:1.00 / aq2=0 / aq3=0
Language                    : English
Default                     : Yes
Forced                      : No
Color range                 : Limited
Matrix coefficients         : BT.709

Audio #1
ID                          : 2
Format                      : AC-3
Format/Info                 : Audio Coding 3
Commercial name             : Dolby Digital
Codec ID                    : A_AC3
Duration                    : 1 h 46 min
Bit rate mode               : Constant
Bit rate                    : 384 kb/s
Channel(s)                  : 6 channels
Channel positions           : Front: L C R, Side: L R, LFE
Sampling rate               : 48.0 kHz
Frame rate                  : 31.250 FPS (1536 SPF)
Bit depth                   : 16 bits
Compression mode            : Lossy
Stream size                 : 293 MiB (2%)
Title                       : iTunes
Language                    : Russian
Service kind                : Complete Main
Default                     : Yes
Forced                      : Yes

Audio #2
ID                          : 3
Format                      : AC-3
Format/Info                 : Audio Coding 3
Commercial name             : Dolby Digital
Codec ID                    : A_AC3
Duration                    : 1 h 46 min
Bit rate mode               : Constant
Bit rate                    : 640 kb/s
Channel(s)                  : 6 channels
Channel positions           : Front: L C R, Side: L R, LFE
Sampling rate               : 48.0 kHz
Frame rate                  : 31.250 FPS (1536 SPF)
Bit depth                   : 16 bits
Compression mode            : Lossy
Stream size                 : 489 MiB (4%)
Title                       : AVO [Chadov]
Language                    : Russian
Service kind                : Complete Main
Default                     : No
Forced                      : No

Audio #3
ID                          : 4
Format                      : AC-3
Format/Info                 : Audio Coding 3
Commercial name             : Dolby Digital
Codec ID                    : A_AC3
Duration                    : 1 h 46 min
Bit rate mode               : Constant
Bit rate                    : 640 kb/s
Channel(s)                  : 6 channels
Channel positions           : Front: L C R, Side: L R, LFE
Sampling rate               : 48.0 kHz
Frame rate                  : 31.250 FPS (1536 SPF)
Bit depth                   : 16 bits
Compression mode            : Lossy
Stream size                 : 489 MiB (4%)
Title                       : Original
Language                    : English
Service kind                : Complete Main
Default                     : No
Forced                      : No

Text #1
ID                          : 5
Format                      : UTF-8
Codec ID                    : S_TEXT/UTF8
Codec ID/Info               : UTF-8 Plain Text
Duration                    : 1 h 39 min
Bit rate                    : 99 b/s
Count of elements           : 1313
Stream size                 : 72.3 KiB (0%)
Title                       : Full
Language                    : Russian
Default                     : No
Forced                      : No

Text #2
ID                          : 6
Format                      : UTF-8
Codec ID                    : S_TEXT/UTF8
Codec ID/Info               : UTF-8 Plain Text
Duration                    : 1 h 39 min
Bit rate                    : 63 b/s
Count of elements           : 1568
Stream size                 : 46.6 KiB (0%)
Title                       : Full
Language                    : English
Default                     : No
Forced                      : No

Text #3
ID                          : 7
Format                      : UTF-8
Codec ID                    : S_TEXT/UTF8
Codec ID/Info               : UTF-8 Plain Text
Duration                    : 1 h 43 min
Bit rate                    : 69 b/s
Count of elements           : 1755
Stream size                 : 52.5 KiB (0%)
Title                       : SDH
Language                    : English
Default                     : No
Forced                      : No

Menu
00:00:00.000                : en:00:00:00.000
00:05:39.089                : en:00:05:39.089
00:08:51.239                : en:00:08:51.239
00:11:55.798                : en:00:11:55.798
00:19:12.860                : en:00:19:12.860
00:24:34.139                : en:00:24:34.139
00:28:37.174                : en:00:28:37.174
00:32:45.964                : en:00:32:45.964
00:36:15.840                : en:00:36:15.840
00:43:49.168                : en:00:43:49.168
00:47:10.411                : en:00:47:10.411
00:53:49.518                : en:00:53:49.518
00:56:56.330                : en:00:56:56.330
01:00:27.082                : en:01:00:27.082
01:07:55.154                : en:01:07:55.154
01:11:16.564                : en:01:11:16.564
01:15:52.256                : en:01:15:52.256
01:19:23.926                : en:01:19:23.926
01:22:41.415                : en:01:22:41.415
01:25:43.889                : en:01:25:43.889
01:28:20.837                : en:01:28:20.837
01:31:24.813                : en:01:31:24.813
01:37:14.537                : en:01:37:14.537
01:40:07.585                : en:01:40:07.585



Скриншоты:
[+] Всего файлов в раздаче - 1:
Death.Wish.2018.D.AVO.BDRip.1080p.ExKinoRay.mkv11.71 GB

Текущая раздача:
ДатаКомментарии    РазмерПиры
2018-08-10 U Жажда смерти / Death Wish (2018) BDRip 1080p от ExKinoRay | D, A | iTunes 11.71 GB ↑ 59 ↓ 34

Показать еще раздачи по запросу жажда:
2018-08-19 U VA - Жажда Скорости. Сборник Лучшего Vol. 01 (2011) MP3 1.14 GB ↑ 68 ↓ 8
2018-08-10 U Жажда смерти / Death Wish (2018) BDRip-AVC от ExKinoRay | Чадов 1К1.47 GB ↑ 26 ↓ 20
2018-07-15 U Жажда смерти / Death Wish (2018) BDRip от ExKinoRay | iTunes 1.41 GB ↑ 120 ↓ 30
2018-07-15 U Жажда смерти / Death Wish (2018) BDRip от ExKinoRay | iTunes 2.14 GB ↑ 102 ↓ 21
2018-07-09 U Жажда смерти / Death Wish (2018) BDRip 720p от Scarabey | iTunes 3.40 GB ↑ 157 ↓ 24
2018-07-09 U Жажда смерти / Death Wish (2018) HDRip от Scarabey | iTunes 1.40 GB ↑ 43 ↓ 20
2018-07-08 U Жажда смерти / Death Wish (2018) BDRip 720p от HELLYWOOD | iTunes 4.18 GB ↑ 66 ↓ 36

Отзывы
Зарегистрируйтесь чтобы добавить комментарий.
Обратная связь
Copyleft ©