↑↓Torrent.by
Поиск
Логин: Регистрация
Пароль: Восстановить пароль
Загрузка...

Насекомые / Hmyz (2018) WEBRip 1080p | GreenРай Studio

Скачать nasekomye-hmyz-2018-webrip-1080p-greenray-studio.torrent
U Магнитная ссылка Размер: 2.86 GB Раздают: 33 Качают: 6 Добавлен: 2018-08-10 15:07:35
Насекомые / Hmyz (2018) WEBRip 1080p | GreenРай Studio

Год выхода: 2018
Наименование: Насекомые
Оригинальное наименование: Hmyz
Страна: Чехия, Словакия
Жанр:  драма, комедия
Режиссер постановщик: Ян Шванкмайер
В главных ролях: Иржи Лабус, Ян Бударж, Камила Магалова, Яромир Дулава, Норберт Лихий, Ивана Углиржова

О фильме: Труппа начинающих актеров репетирует пьесу «Из жизни насекомых», постепенно превращаясь в ее персонажей.

Файл
Качество:  WEBRip 1080p
Видео данные: MKV, 1792x1080 (5:3), 25.000 fps, 4000 Кбит/с
Аудио данные: AC3, 2 ch, 384 Кбит/с
Перевод: Любительский многоголосый (GreenРай Studio)
Продолжительность: 01:32:27

Внимание, имеется  видео и аудио реклама от спонсора показа

Релиз:


[+] Медиаинфо
General
Unique ID                                : 182859493034275470776345893737709319409 (0x89917513409C14C686D09DC5BA1234F1)
Complete name                            : D:ГРИНРАЙHmyz.2018.P.WEB-DL.1080p.mkv
Format                                   : Matroska
Format version                           : Version 4 / Version 2
File size                                : 2.86 GiB
Duration                                 : 1 h 34 min
Overall bit rate mode                    : Constant
Overall bit rate                         : 4 336 kb/s
Encoded date                             : UTC 2018-08-01 10:19:51
Writing application                      : mkvmerge v6.5.0 ('Isn't she lovely') built on Oct 20 2013 12:50:05
Writing library                          : libebml v1.3.0 + libmatroska v1.4.1

Video
ID                                       : 1
Format                                   : AVC
Format/Info                              : Advanced Video Codec
Format profile                           : Main@L4
Format settings                          : CABAC / 3 Ref Frames
Format settings, CABAC                   : Yes
Format settings, RefFrames               : 3 frames
Format settings, GOP                     : M=1, N=15
Codec ID                                 : V_MPEG4/ISO/AVC
Duration                                 : 1 h 34 min
Bit rate mode                            : Constant
Bit rate                                 : 4 000 kb/s
Width                                    : 1 792 pixels
Height                                   : 1 080 pixels
Display aspect ratio                     : 5:3
Frame rate mode                          : Constant
Frame rate                               : 25.000 FPS
Standard                                 : NTSC
Color space                              : YUV
Chroma subsampling                       : 4:2:0
Bit depth                                : 8 bits
Scan type                                : Progressive
Bits/(Pixel*Frame)                       : 0.083
Stream size                              : 2.55 GiB (89%)
Language                                 : English
Default                                  : Yes
Forced                                   : No
Color range                              : Limited

Audio
ID                                       : 2
Format                                   : AC-3
Format/Info                              : Audio Coding 3
Codec ID                                 : A_AC3
Duration                                 : 1 h 34 min
Bit rate mode                            : Constant
Bit rate                                 : 384 kb/s
Channel(s)                               : 2 channels
Channel positions                        : Front: L R
Sampling rate                            : 48.0 kHz
Frame rate                               : 31.250 FPS (1536 SPF)
Bit depth                                : 16 bits
Compression mode                         : Lossy
Stream size                              : 259 MiB (9%)
Service kind                             : Complete Main
Default                                  : Yes
Forced                                   : No



Скриншоты:
[+] Всего файлов в раздаче - 1:
Hmyz.2018.P.WEB-DL.1080p.mkv2.86 GB

Текущая раздача:
ДатаКомментарии    РазмерПиры
2018-08-10 U Насекомые / Hmyz (2018) WEBRip 1080p | GreenРай Studio 2.86 GB ↑ 33 ↓ 6

Показать еще раздачи по запросу насекомые:
2018-08-10 U Насекомые / Hmyz (2018) WEBRip | GreenРай Studio 1.37 GB ↑ 26 ↓ 6
2018-01-24 U National Geographic: Удивительные насекомые / Incredible Insects (2015) HDTVRip 720p | D 1.65 GB ↑ 96 ↓ 11
2016-06-08 U NG: Удивительные насекомые / Incredible Insects (2015) HDTVRip от Kaztorrents | P1 629.67 MB ↑ 99 ↓ 8
2015-06-21 U Насекомые оригами [Origami insects] (2003) PDF от RG Superdetki 1К23.14 MB ↑ 184 ↓ 7
2014-03-31 U Эти кошмарные насекомые / Insects from Hel [01-07] (2004) SATRip от HitWay | P1 1.89 GB ↑ 21 ↓ 1
2014-03-26 U Эти кошмарные насекомые / Insects from Hel [01-04] (2004) SATRip от HitWay | P1 1.08 GB ↑ 23 ↓ 54
2014-03-22 U Эти кошмарные насекомые / Insects from Hel [01-02] (2004) SATRip от HitWay | P1 552.94 MB ↑ 41 ↓ 42

Отзывы
Зарегистрируйтесь чтобы добавить комментарий.
Обратная связь
Copyleft ©