↑↓Torrent.by
Поиск
Логин: Регистрация
Пароль: Восстановить пароль
Загрузка...

Ландыш серебристый (2000) SATRip-AVC от KORSAR

Скачать landysh-serebristyy-2000-satrip-avc-ot-korsar.torrent
U Магнитная ссылка Размер: 1.46 GB Раздают: 30 Качают: 5 Добавлен: 2018-08-10 15:11:02
Ландыш серебристый (2000) SATRip-AVC от KORSAR

Название: Ландыш серебристый
Год выхода: 2000
Жанр: Мюзикл, мелодрама, комедия
Режиссер: Тигран Кеосаян
В ролях: Олеся Железняк, Александр Цекало, Юрий Стоянов, Алёна Хмельницкая, Владимир Ильин, Валерий Гаркалин, Даниил Белых, Олеся Судзиловская, Виктория Толстоганова, Георгий Мартиросян

О фильме: Как стать звездой? Тернист путь к Олимпу. Юная Зоя Мисочкина в каталажке провинциального городка Локотки знакомится с двумя продюсерами — Придорожным и Болотовым, от которых только что сбежала примадонна Ирма.
Зоя страстно хочет петь, поэтому увязывается за новыми знакомыми и оказывается в большой квартире с двумя с виду серьезными господами, а при близком знакомстве — полусумасшедшими трогательными клоунами.
Жизнь Зойки переворачивается. Уроки вокала, салоны красоты, тренажерные залы, презентации — все это должно превратить никому не известную невзрачную девочку в новую поп-звезду.

Страна: Россия
Студия: Студия «Козерог»
Продолжительность: 01:26:18

Файл
Кодек: х264
Качество: SATRip-AVC
Видео: MPEG-4 AVC, 684x484@730x484, 25 fps, 2153 Кбит/с
Аудио: AC3, 2 ch, 224 Кбит/с

Релиз:


[+] Инфо файл

Общее
Уникальный идентификатор         : 217500197435372112185496380860894299114 (0xA3A103AA2763900B9B09F850202C43EA)
Полное имя                       : Ландыш серебристый_2000-SATRip-AVC.mkv
Формат                           : Matroska
Размер файла                     : 1,46 Гбайт
Продолжительность                : 1 ч. 26 м.
Общий поток                      : 2426 Кбит/сек
Дата кодирования                 : UTC 2017-08-11 11:05:47
Программа кодирования            : mkvmerge v5.8.0 ('No Sleep / Pillow') built on Sep  2 2012 15:37:04
Библиотека кодирования           : libebml v1.2.3 + libmatroska v1.3.0

Видео
Идентификатор                    : 1
Формат                           : AVC
Формат/Информация                : Advanced Video Codec
Профиль формата                  : High@L4.1
Параметр CABAC формата           : Да
Параметр ReFrames формата        : 14 кадры
Параметры GOP формата            : N=1
Идентификатор кодека             : V_MPEG4/ISO/AVC
Продолжительность                : 1 ч. 26 м.
Битрейт                          : 2153 Кбит/сек
Ширина                           : 684 пикс.
Высота                           : 484 пикс.
Соотношение сторон               : 3:2
Соотношение сторон в оригинале   : 3:2
Частота кадров                   : 25,000 кадр/сек
Цветовое пространство            : YUV
Подвыборка цветности             : 4:2:0
Битовая глубина                  : 8 бит
Тип развёртки                    : Прогрессивная
Бит/(Пиксели*Кадры)              : 0.260
Размер потока                    : 1,30 Гбайт (89%)
Библиотека кодирования           : x264 core 148 r2744kMod b97ae06
Настройки программы              : cabac=1 / ref=14 / deblock=1:-2:-1 / analyse=0x3:0x133 / me=umh / subme=10 / psy=1 / fade_compensate=0.00 / psy_rd=1.05:0.10 / mixed_ref=1 / me_range=32 / chroma_me=1 / trellis=2 / 8x8dct=1 / cqm=0 / deadzone=21,11 / fast_pskip=1 / chroma_qp_offset=-3 / threads=12 / lookahead_threads=2 / sliced_threads=0 / nr=0 / decimate=1 / interlaced=0 / bluray_compat=0 / constrained_intra=0 / bframes=8 / b_pyramid=2 / b_adapt=2 / b_bias=0 / direct=1 / weightb=1 / open_gop=0 / weightp=2 / keyint=250 / keyint_min=25 / scenecut=40 / intra_refresh=0 / rc=crf / mbtree=0 / crf=18.1000 / qcomp=0.63 / qpmin=0 / qpmax=39 / qpstep=4 / ip_ratio=1.40 / pb_ratio=1.30 / aq=1:0.90
Язык                             : English
Основные цвета                   : BT.470-6 System B, BT.470-6 System G, BT.601-6 625, BT.1358 625, BT.1700 625 PAL, BT.1700 625 SECAM
Характеристики трансфера         : BT.470-6 System B, BT.470-6 System G
Коэффициенты матрицы             : BT.470-6 System B, BT.470-6 System G, BT.601-6 625, BT.1358 625, BT.1700 625 PAL, BT.1700 625 SECAM, IEC 61966-2-4 601

Аудио
Идентификатор                    : 2
Формат                           : AC-3
Формат/Информация                : Audio Coding 3
Расширение режима                : CM (complete main)
Идентификатор кодека             : A_AC3
Продолжительность                : 1 ч. 26 м.
Вид битрейта                     : Постоянный
Битрейт                          : 224 Кбит/сек
Канал(ы)                         : 2 канала(ов)
Расположение каналов             : Front: L R
Частота                          : 48,0 КГц
Битовая глубина                  : 16 бит
Метод сжатия                     : С потерями
Размер потока                    : 138 Мбайт (9%)
Язык                             : Russian



Скриншоты:
[+] Всего файлов в раздаче - 1:
Ландыш серебристый_2000-SATRip-AVC.mkv1.46 GB

Отзывы
Зарегистрируйтесь чтобы добавить комментарий.
Обратная связь
Copyleft ©