↑↓Torrent.by
Поиск
Логин: Регистрация
Пароль: Восстановить пароль
Загрузка...

Тихое место / A Quiet Place (2018) BDRip-AVC от ExKinoRay | Лицензия

Скачать tihoe-mesto-a-quiet-place-2018-bdrip-avc-ot-exkinoray-licenziya.torrent
U Магнитная ссылка Размер: 1.45 GB Раздают: 30 Качают: 2 Добавлен: 2018-08-10 16:32:29
Тихое место / A Quiet Place (2018) BDRip-AVC от ExKinoRay | Лицензия

Информация о фильме
Название: Тихое место
Оригинальное название: A Quiet Place
Год выпуска: 2018
Жанр: Ужасы, триллер, драма
Режиссер: Джон Красински
В ролях: Эмили Блант, Джон Красински, Ноа Джуп, Милли Симмондс, Леон Рассом, Кейд Вудворд, Дорис МакКарти

О фильме:
История одной семьи, которая проживает в небольшой уединённой ферме в далёкой американской глубинке. У главных героев есть двое детей. Казалось бы, жизнь этих людей совершенно не отличается от жизни других таких семей. Но главные герои живут в доме, который наполнен ужасными монстрами, реагирующими на любой звук. Герои разучили целый комплекс специальных жестов, которые помогают им общаться друг с другом, не издавая ни единого звука. Кроме того, каждый из членов семьи должен очень тихо передвигаться по всей территории дома, чтобы опасные существа не заметили их. Однако дом, где живут маленькие дети, не может быть самым тихим местом на земле.

Страна: США
Студия: Platinum Dunes
Продолжительность: 01:30:15
Перевод: Дублированный | Лицензия BD EUR
Субтитры: Русские (форс., полные), английские (полные, SDH, SDH-Colored)

Формат: MKV
Качество: BDRip-AVC
Видео: MPEG-4 AVC, 720x300 (2.40:1), 23.976 fps, 1848 Kbps, 0.357 bit/pixel
Аудио: 48 kHz, AC3, 5/1, 448 Kbps | RUS |

Релиз:

Автор релиза:


[+] MI
General
Unique ID                                : 218912562514573932500547397454390163320 (0xA4B106A3AC063AD79F287802BEB0F778)
Complete name                            : D:A.Quiet.Place.2018.Dub.BDRip.AVC.ExKinoRay.mkv
Format                                   : Matroska
Format version                           : Version 2
File size                                : 1.45 GiB
Duration                                 : 1 h 30 min
Overall bit rate                         : 2 296 kb/s
Movie name                               : A Quiet Place 2018 from ExKinoRay
Encoded date                             : UTC 2018-08-09 20:29:27
Writing application                      : mkvmerge v5.6.0 ('Kenya Kane') built on May 27 2012 16:44:04
Writing library                          : libebml v1.2.3 + libmatroska v1.3.0

Video
ID                                       : 1
Format                                   : AVC
Format/Info                              : Advanced Video Codec
Format profile                           : High@L4.1
Format settings, CABAC                   : Yes
Format settings, ReFrames                : 12 frames
Codec ID                                 : V_MPEG4/ISO/AVC
Duration                                 : 1 h 30 min
Bit rate                                 : 1 848 kb/s
Width                                    : 720 pixels
Height                                   : 300 pixels
Display aspect ratio                     : 2.40:1
Frame rate mode                          : Constant
Frame rate                               : 23.976 (24000/1001) FPS
Original frame rate                      : 23.976 (23976/1000) FPS
Color space                              : YUV
Chroma subsampling                       : 4:2:0
Bit depth                                : 8 bits
Scan type                                : Progressive
Bits/(Pixel*Frame)                       : 0.357
Stream size                              : 1.14 GiB (78%)
Title                                    : Enigma
Writing library                          : x264 core 152 r2851 ba24899
Encoding settings                        : cabac=1 / ref=12 / deblock=1:-2:-2 / analyse=0x3:0x113 / me=umh / subme=10 / psy=1 / psy_rd=1.05:0.10 / mixed_ref=1 / me_range=32 / chroma_me=1 / trellis=2 / 8x8dct=1 / cqm=0 / deadzone=21,11 / fast_pskip=0 / chroma_qp_offset=-3 / threads=9 / lookahead_threads=2 / sliced_threads=0 / nr=0 / decimate=0 / interlaced=0 / bluray_compat=0 / constrained_intra=0 / bframes=10 / b_pyramid=2 / b_adapt=2 / b_bias=0 / direct=3 / weightb=1 / open_gop=0 / weightp=2 / keyint=240 / keyint_min=23 / scenecut=40 / intra_refresh=0 / rc=2pass / mbtree=0 / bitrate=1848 / ratetol=1.0 / qcomp=0.60 / qpmin=0 / qpmax=51 / qpstep=4 / cplxblur=20.0 / qblur=0.5 / ip_ratio=1.40 / pb_ratio=1.30 / aq=1:1.00
Default                                  : Yes
Forced                                   : No
Color range                              : Limited
Color primaries                          : BT.709
Transfer characteristics                 : BT.709
Matrix coefficients                      : BT.709

Audio
ID                                       : 2
Format                                   : AC-3
Format/Info                              : Audio Coding 3
Mode extension                           : CM (complete main)
Format settings, Endianness              : Big
Codec ID                                 : A_AC3
Duration                                 : 1 h 30 min
Bit rate mode                            : Constant
Bit rate                                 : 448 kb/s
Channel(s)                               : 6 channels
Channel positions                        : Front: L C R, Side: L R, LFE
Sampling rate                            : 48.0 kHz
Frame rate                               : 31.250 FPS (1536 spf)
Compression mode                         : Lossy
Stream size                              : 289 MiB (20%)
Title                                    : Dub (License)
Language                                 : Russian
Default                                  : Yes
Forced                                   : No

Text #1
ID                                       : 3
Format                                   : UTF-8
Codec ID                                 : S_TEXT/UTF8
Codec ID/Info                            : UTF-8 Plain Text
Title                                    : Forced
Language                                 : Russian
Default                                  : Yes
Forced                                   : No

Text #2
ID                                       : 4
Format                                   : UTF-8
Codec ID                                 : S_TEXT/UTF8
Codec ID/Info                            : UTF-8 Plain Text
Title                                    : Full
Language                                 : Russian
Default                                  : No
Forced                                   : No

Text #3
ID                                       : 5
Format                                   : UTF-8
Codec ID                                 : S_TEXT/UTF8
Codec ID/Info                            : UTF-8 Plain Text
Title                                    : Full
Language                                 : English
Default                                  : No
Forced                                   : No

Text #4
ID                                       : 6
Format                                   : UTF-8
Codec ID                                 : S_TEXT/UTF8
Codec ID/Info                            : UTF-8 Plain Text
Title                                    : SDH
Language                                 : English
Default                                  : No
Forced                                   : No

Text #5
ID                                       : 7
Format                                   : UTF-8
Codec ID                                 : S_TEXT/UTF8
Codec ID/Info                            : UTF-8 Plain Text
Title                                    : SDH-Colored
Language                                 : English
Default                                  : No
Forced                                   : No

Menu
00:00:00.000                             : en:00:00:00.000
00:10:19.160                             : en:00:10:19.160
00:14:38.044                             : en:00:14:38.044
00:21:52.937                             : en:00:21:52.937
00:25:09.717                             : en:00:25:09.717
00:31:05.197                             : en:00:31:05.197
00:36:23.431                             : en:00:36:23.431
00:43:47.333                             : en:00:43:47.333
00:47:42.735                             : en:00:47:42.735
00:53:48.225                             : en:00:53:48.225
01:00:31.461                             : en:01:00:31.461
01:05:55.410                             : en:01:05:55.410
01:10:57.879                             : en:01:10:57.879
01:15:29.150                             : en:01:15:29.150
01:23:47.314                             : en:01:23:47.314




Скриншоты:
[+] Всего файлов в раздаче - 1:
A.Quiet.Place.2018.Dub.BDRip.AVC.ExKinoRay.mkv1.45 GB

Текущая раздача:
ДатаКомментарии    РазмерПиры
2018-08-10 U Тихое место / A Quiet Place (2018) BDRip-AVC от ExKinoRay | Лицензия 1.45 GB ↑ 30 ↓ 2

Показать еще раздачи по запросу тихое:
2018-07-31 U Тихое место / A Quiet Place (2018) BDRip от HQ-ViDEO | D 1.45 GB ↑ 41 ↓ 6
2018-07-30 U Тихое место / A Quiet place (2018) BDRip 720p от Scarabey | Лицензия, P 3.73 GB ↑ 20 ↓ 13
2018-07-29 U Тихое место / A Quiet place (2018) HDRip от Scarabey | Лицензия 1.44 GB ↑ 770 ↓ 28
2018-07-28 U Тихое место / A Quiet Place (2018) BDRip-AVC от OlLanDGroup | D, P | Лицензия 1.68 GB ↑ 53 ↓ 24
2018-07-28 U Тихое место / A Quiet Place (2018) BDRip от MegaPeer | Лицензия 2К746.96 MB ↑ 58 ↓ 25
2018-07-28 U Тихое место / A Quiet Place (2018) BDRemux 1080p от ExKinoRay | D, P | Лицензия 18.87 GB ↑ 38 ↓ 45
2018-07-28 U Тихое место / A Quiet Place (2018) BDRip 720p от HELLYWOOD | Лицензия 3.43 GB ↑ 21 ↓ 15

Отзывы
Зарегистрируйтесь чтобы добавить комментарий.
Обратная связь
Copyleft ©