↑↓Torrent.by
Поиск
Логин: Регистрация
Пароль: Восстановить пароль
Загрузка...

План побега 2 / Escape Plan 2: Hades (2018) BDRip-AVC от OlLanDGroup | D, P | iTunes

Скачать plan-pobega-2-escape-hades-2018-bdrip-avc-ot-ollandgroup-d-p-itunes.torrent
U Магнитная ссылка Размер: 1.87 GB Раздают: 374 Качают: 83 Добавлен: 2018-08-13 15:38:25
План побега 2 / Escape Plan 2: Hades (2018) BDRip-AVC от OlLanDGroup | D, P | iTunes

План побега 2 / Escape Plan 2: Hades
«Он вернулся»

Год выпуска: 2018
Страна: Китай, США
Производство: Emmett/Furla/Oasis Films (EFO Films), Grindstone Entertainment Group, Leomus Pictures
Жанр:  Боевик, триллер

Режиссёр: Стивен С. Миллер
В ролях: Дэйв Батиста, Байли Каррен, Сильвестр Сталлоне, Джейми Кинг, Уэс Чэтэм, Титус Уэлливер, Джесси Меткалф, 50 Cent, Винсент Янг, Лидия Халл

Перевод: Дублированный | iTunes, Профессиональный (многоголосый, закадровый) | HDRezka Studio
Субтитры: Английские (форс., полные)
Реклама: Отсутствует

Описание: Рэй руководит группой, которая занимается безопасностью пенитенциарных учреждений, обученных совершать побеги из самых охраняемых тюрем мира. В один из дней специалиста-оперативника из его команды похищают и отправляют в тюрьму с системой безопасности, оборудованной по последнему слову техники. Рэй решает вызволить его, прибегнув к помощи старых товарищей.

Качество: BDRip-AVC
Продолжительность: 01:33:38

Формат: MKV
Видео кодек: MPEG-4 AVC
Аудио кодек: AC3
Видео: 1024x428 (2.40:1), 23,976 fps, x264 ~1 833 kbps avg, 0.174 bit/pixel
Аудио #1: 48 kHz, AC3 Dolby Digital, 3/2 (L,C,R,l,r) + LFE ch, ~384.00 kbps avg | (iTunes)
Аудио #2: 48 kHz, AC3 Dolby Digital, 2 (L,R) ch, ~192.00 kbps avg | RUS (HDRezka Studio)
Аудио #3: 48 kHz, AC3 Dolby Digital, 3/2 (L,C,R,l,r) + LFE ch, ~448.00 kbps avg | ENG

Дата премьеры (мир): 13 июня 2018
Дата премьеры (РФ): 28 июня 2018, «MEGOGO Distribution»

Релиз: Rip by:




[+] MediaInfo

Общее
Уникальный идентификатор                 : 116796908367608933161779241293521628397 (0x57DE442DCA4A99D9926F31D689B02CED)
Полное имя                               : F:OlLanDGroupEscape.Plan.2.Hades.2018.BDRip(AVC).OlLanDGroup.mkv
Формат                                   : Matroska
Версия формата                           : Version 4 / Version 2
Размер файла                             : 1,87 Гбайт
Продолжительность                        : 1 ч. 33 м.
Общий поток                              : 2856 Кбит/сек
Название фильма                          : Escape.Plan.2.Hades    #TorpedoUK#
Дата кодирования                         : UTC 2018-08-13 03:20:40
Программа кодирования                    : mkvmerge v25.0.0 ('Prog Noir') 64-bit
Библиотека кодирования                   : libebml v1.3.6 + libmatroska v1.4.9

Видео
Идентификатор                            : 1
Формат                                   : AVC
Формат/Информация                        : Advanced Video Codec
Профиль формата                          : High@L4.1
Параметр CABAC формата                   : Да
Параметр ReFrames формата                : 10 кадров
Идентификатор кодека                     : V_MPEG4/ISO/AVC
Продолжительность                        : 1 ч. 33 м.
Битрейт                                  : 1833 Кбит/сек
Ширина                                   : 1024 пикселя
Высота                                   : 428 пикселей
Соотношение сторон                       : 2,40:1
Режим частоты кадров                     : Постоянный
Частота кадров                           : 23,976 (24000/1001) кадра/сек
Цветовое пространство                    : YUV
Субдискретизация насыщенности            : 4:2:0
Битовая глубина                          : 8 бит
Тип развёртки                            : Прогрессивная
Бит/(Пиксели*Кадры)                      : 0.174
Размер потока                            : 1,20 Гбайт (64%)
Библиотека кодирования                   : x264 core 146 r2538 121396c
Настройки программы                      : cabac=1 / ref=10 / deblock=1:-3:-3 / analyse=0x3:0x113 / me=umh / subme=11 / psy=1 / psy_rd=1.00:0.03 / mixed_ref=1 / me_range=48 / chroma_me=1 / trellis=2 / 8x8dct=1 / cqm=0 / deadzone=21,11 / fast_pskip=1 / chroma_qp_offset=-3 / threads=6 / lookahead_threads=1 / sliced_threads=0 / nr=0 / decimate=1 / interlaced=0 / bluray_compat=0 / constrained_intra=0 / bframes=10 / b_pyramid=2 / b_adapt=2 / b_bias=0 / direct=3 / weightb=1 / open_gop=0 / weightp=2 / keyint=240 / keyint_min=23 / scenecut=40 / intra_refresh=0 / rc_lookahead=40 / rc=2pass / mbtree=1 / bitrate=1833 / ratetol=1.0 / qcomp=0.60 / qpmin=0 / qpmax=69 / qpstep=4 / cplxblur=20.0 / qblur=0.5 / vbv_maxrate=50000 / vbv_bufsize=62500 / nal_hrd=none / filler=0 / ip_ratio=1.40 / aq=1:1.00
Язык                                     : English
Default                                  : Да
Forced                                   : Нет

Аудио #1
Идентификатор                            : 2
Формат                                   : AC-3
Формат/Информация                        : Audio Coding 3
Расширение режима                        : CM (complete main)
Параметр Endianness формата              : Big
Идентификатор кодека                     : A_AC3
Продолжительность                        : 1 ч. 33 м.
Вид битрейта                             : Постоянный
Битрейт                                  : 384 Кбит/сек
Каналы                                   : 6 каналов
Расположение каналов                     : Front: L C R, Side: L R, LFE
Частота                                  : 48,0 КГц
Частота кадров                           : 31,250 кадров/сек (1536 spf)
Битовая глубина                          : 16 бит
Метод сжатия                             : С потерями
Размер потока                            : 257 Мбайт (13%)
Заголовок                                : iTunes
Язык                                     : Russian
Default                                  : Да
Forced                                   : Нет

Аудио #2
Идентификатор                            : 3
Формат                                   : AC-3
Формат/Информация                        : Audio Coding 3
Расширение режима                        : CM (complete main)
Параметр Endianness формата              : Big
Идентификатор кодека                     : A_AC3
Продолжительность                        : 1 ч. 33 м.
Вид битрейта                             : Постоянный
Битрейт                                  : 192 Кбит/сек
Каналы                                   : 2 канала
Расположение каналов                     : Front: L R
Частота                                  : 48,0 КГц
Частота кадров                           : 31,250 кадров/сек (1536 spf)
Битовая глубина                          : 16 бит
Метод сжатия                             : С потерями
Размер потока                            : 129 Мбайт (7%)
Заголовок                                : [HDRezka Studio]
Язык                                     : Russian
Default                                  : Нет
Forced                                   : Нет

Аудио #3
Идентификатор                            : 4
Формат                                   : AC-3
Формат/Информация                        : Audio Coding 3
Расширение режима                        : CM (complete main)
Параметр Endianness формата              : Big
Идентификатор кодека                     : A_AC3
Продолжительность                        : 1 ч. 33 м.
Вид битрейта                             : Постоянный
Битрейт                                  : 448 Кбит/сек
Каналы                                   : 6 каналов
Расположение каналов                     : Front: L C R, Side: L R, LFE
Частота                                  : 48,0 КГц
Частота кадров                           : 31,250 кадров/сек (1536 spf)
Битовая глубина                          : 16 бит
Метод сжатия                             : С потерями
Размер потока                            : 300 Мбайт (16%)
Заголовок                                : Original
Язык                                     : English
Default                                  : Нет
Forced                                   : Нет

Текст #1
Идентификатор                            : 5
Формат                                   : UTF-8
Идентификатор кодека                     : S_TEXT/UTF8
Идентификатор кодека/Информация          : UTF-8 Plain Text
Продолжительность                        : 1 ч. 4 м.
Битрейт                                  : 2 бит/сек
Count of elements                        : 20
Размер потока                            : 1,08 Кбайт (0%)
Заголовок                                : Forced
Язык                                     : English
Default                                  : Нет
Forced                                   : Нет

Текст #2
Идентификатор                            : 6
Формат                                   : UTF-8
Идентификатор кодека                     : S_TEXT/UTF8
Идентификатор кодека/Информация          : UTF-8 Plain Text
Продолжительность                        : 1 ч. 24 м.
Битрейт                                  : 44 бит/сек
Count of elements                        : 846
Размер потока                            : 27,4 Кбайт (0%)
Заголовок                                : Full
Язык                                     : English
Default                                  : Нет
Forced                                   : Нет



Скриншоты:
[+] Всего файлов в раздаче - 1:
Escape.Plan.2.Hades.2018.BDRip(AVC).OlLanDGroup.mkv1.87 GB

Текущая раздача:
ДатаКомментарии    РазмерПиры
2018-08-13 U План побега 2 / Escape Plan 2: Hades (2018) BDRip-AVC от OlLanDGroup | D, P | iTunes 1.87 GB ↑ 374 ↓ 83

Показать еще раздачи по запросу план:
2018-08-13 U План побега 2 / Escape Plan 2: Hades (2018) BDRip от MegaPeer | iTunes 1.42 GB ↑ 260 ↓ 107
2018-06-07 U План побега / Plan de fuga (2016) HDRip | GreenРай Studio 2К1.46 GB ↑ 262 ↓ 27
2018-04-07 U План Б: Нафиг план А / Plan B: Scheiss auf Plan A (2017) HDRip | L2 742.99 MB ↑ 8 ↓ 17
2018-04-07 U План Б: Нафиг план А / Plan B: Scheiss auf Plan A (2017) BDRip 720 | L2 1.32 GB ↑ 147 ↓ 31
2017-08-10 U План Z / Plan Z (2016) WEBRip | L1 1.45 GB ↑ 91 ↓ 38
2017-08-06 U План Z / Plan Z / 2016 / ЛО / (2016) WEBRip 1080p | L1 3.32 GB ↑ 55 ↓ 17
2017-04-02 U План побега / Escape Route (2016) HDTVRip | L 1.37 GB ↑ 73 ↓ 27

Отзывы
Зарегистрируйтесь чтобы добавить комментарий.
Обратная связь
Copyleft ©