↑↓Torrent.by
Поиск
Логин: Регистрация
Пароль: Восстановить пароль
Загрузка...

Черный кофе - Концерт в Питере (2018) WEBRip 720p

Скачать chernyy-kofe-koncert-v-pitere-2018-webrip-720p.torrent
U Магнитная ссылка Размер: 1.71 GB Раздают: 147 Качают: 43 Добавлен: 2018-08-15 07:55:17
Черный кофе - Концерт в Питере (2018) WEBRip 720p

Исполнитель/Группа:  Черный кофе
Жанр:  Heavy metal
Год выпуска: 2018
Продолжительность: 00:53:53

Состав группы:
Дмитрий Варшавский - гитара соло, вокал
Евгения Варшавская - бас-гитара
Андрей Приставка - ударные

Формат: MKV
Качество: WEBRip 720p
Видео кодек: H.264
Аудио кодек: AAC
Видео: H.264 1280x720 (16:9) 25fps 4 000 Kbps
Аудио: AAC, 48000Hz, 2ch, 192 kbps
[+] Треклист
1.Это-рок!
2.Переступи порог
3.Владимирская Русь
4.Церквушки
5.Звездный водоем
6.Звуки космоса
7.Леди осень
8.Зимний портрет
9.Кони привередливые(В.Высоцкий)
10.Листья
11.Вольному - воля!



[+] MedaInfo
Black_Coffee_15.03.18.mkv
Format                      : Matroska
Format version              : Version 4 / Version 2
File size                   : 1.71 GiB
Duration                    : 53 min 53 s
Overall bit rate            : 4 545 kb/s
Encoded date                : UTC 2018-08-14 15:50:32
Writing application         : mkvmerge v8.3.0 ('Over the Horizon') 64bit
Writing library             : libebml v1.3.1 + libmatroska v1.4.2

Video
ID                          : 1
Format                      : AVC
Format/Info                 : Advanced Video Codec
Format profile              : Main@L4.1
Format settings, CABAC      : Yes
Format settings, ReFrames   : 4 frames
Codec ID                    : V_MPEG4/ISO/AVC
Duration                    : 53 min 53 s
Bit rate                    : 4 353 kb/s
Width                       : 1 280 pixels
Height                      : 720 pixels
Display aspect ratio        : 16:9
Frame rate mode             : Constant
Frame rate                  : 30.000 FPS
Standard                    : NTSC
Color space                 : YUV
Chroma subsampling          : 4:2:0
Bit depth                   : 8 bits
Scan type                   : Progressive
Bits/(Pixel*Frame)          : 0.157
Stream size                 : 1.64 GiB (96%)
Language                    : English
Default                     : Yes
Forced                      : No
Color range                 : Limited
Color primaries             : BT.709
Transfer characteristics    : BT.709
Matrix coefficients         : BT.709

Audio
ID                          : 2
Format                      : AAC
Format/Info                 : Advanced Audio Codec
Format profile              : LC
Codec ID                    : A_AAC
Duration                    : 53 min 53 s
Bit rate                    : 192 kb/s
Channel(s)                  : 2 channels
Channel positions           : Front: L R
Sampling rate               : 48.0 kHz
Frame rate                  : 46.875 FPS (1024 spf)
Compression mode            : Lossy
Stream size                 : 73.0 MiB (4%)
Language                    : English
Default                     : Yes
Forced                      : No



Скриншоты:
[+] Всего файлов в раздаче - 1:
Black_Coffee_15.03.18.mkv1.71 GB

Текущая раздача:
ДатаКомментарии    РазмерПиры
2018-08-15 U Черный кофе - Концерт в Питере (2018) WEBRip 720p 1.71 GB ↑ 147 ↓ 43

Показать еще раздачи по запросу черный:
2018-11-18 U Чёрный Обелиск - Х (2018) МР3 89.53 MB ↑ 44 ↓ 13
2018-10-11 U Черный 47-й / Black 47 (2018) WEB-DLRip-AVC от OlLanDGroup | HDrezka Studio 1.75 GB ↑ 84 ↓ 25
2018-10-11 U Чёрный 47-й / Black '47 (2018) WEB-DLRip | HDrezka Studio 1.46 GB ↑ 110 ↓ 20
2018-10-10 U Черный 47-й / Black 47 (2018) WEB-DLRip-AVC от OlLanDGroup | HDrezka Studio 1.62 GB ↑ 116 ↓ 47
2018-10-10 U Черный 47-й / Black 47 (2018) WEB-DL 1080p | HDrezka Studio 3.69 GB ↑ 283 ↓ 145
2018-10-09 U Черный 47-й / Black 47 (2018) WEB-DLRip от ExKinoRay | P 745.78 MB ↑ 352 ↓ 85
2018-10-09 U Чёрный 47-й / Black '47 (2018) WEB-DLRip | HDrezka Studio 1.37 GB ↑ 806 ↓ 188

Отзывы
Зарегистрируйтесь чтобы добавить комментарий.
Обратная связь
Copyleft ©