↑↓Torrent.by
Поиск
Логин: Регистрация
Пароль: Восстановить пароль
Загрузка...

Гулящие люди [01-03 из 3] (1988) DVDRip-AVC от KORSAR

Скачать gulyaschie-lyudi-01-03-iz-3-1988-dvdrip-avc-ot-korsar.torrent
U Магнитная ссылка Размер: 3.43 GB Раздают: 62 Качают: 23 Добавлен: 2018-08-16 07:20:58
Гулящие люди [01-03 из 3] (1988) DVDRip-AVC от KORSAR

Год выпуска: 1988
Жанр:  Исторический
Страна: СССР
Продолжительность: 03:42:53
Режиссер: Илья Гурин
В ролях: Андрей Пономарев, Александр Филиппенко, Александр Парра, Андрей Мартынов, Елена Дробышева, Ирина Цивина, Борис Невзоров, Геннадий Фролов, Валентина Федотова, Аршак Оганян, Олег Антонов, Валентин Печников, Леонид Юхин, Вадим Захарченко, Маргарита Сердцева, Сергей Плотников, Николай Мерзликин, Александр Казаков, Зинаида Нарышкина, Юрий Саранцев, Алла Миронова, Иван Лапиков, Степан Старчиков, Николай Парфенов, Федор Валиков, Вадим Шункевич
.
Описание: По одноименному историческому роману Алексея Чапыгина. Об эпохе царствования Алексея Михайловича. XVII век вошел в историю России как «бунташный». Церковь переживала раскол. Староверы отвергали реформы патриарха Никона. По дорогам страны бродило множество беглых крестьян, прозванных «гулящими людьми». В связи с началом чеканки медных денег в Москве вспыхивает "Медный бунт". Один из зачинщиков бунта - сын московского стрельца Семен Лазарев вынужден бежать, в результате чего он оказывается в войске предводителя крестьянского восстания степана Разина.

Релиз:

Кодек: х264
Качество: DVDRip-AVC
Видео: MPEG-4 AVC, 692x500@738x500, 25 fps, 1770 Кбит/с
Звук: AC3, 2 ch, 256 Кбит/с
[+] Инфо файл
[list]
x264 [info]: frame I:713   Avg QP:17.61  size: 49212
x264 [info]: frame P:38974 Avg QP:19.39  size: 22168
x264 [info]: frame B:104501 Avg QP:21.36  size:  5113[/list]Общее
Уникальный идентификатор                 : 176758937872229754474738851564323200007 (0x84FA887BC5CD920E9902E00A70A1DC07)
Полное имя                               : D:Гулящие люди_1988-DVDRip-AVC_KORSARГулящие люди-1.mkv
Формат                                   : Matroska
Версия формата                           : Version 2
Размер файла                             : 942 Мбайт
Продолжительность                        : 1 ч. 3 м.
Общий поток                              : 2067 Кбит/сек
Дата кодирования                         : UTC 2018-04-04 09:20:05
Программа кодирования                    : mkvmerge v5.8.0 ('No Sleep / Pillow') built on Sep  2 2012 15:37:04
Библиотека кодирования                   : libebml v1.2.3 + libmatroska v1.3.0

Видео
Идентификатор                            : 1
Формат                                   : AVC
Формат/Информация                        : Advanced Video Codec
Профиль формата                          : High@L4.1
Параметр CABAC формата                   : Да
Параметр RefFrames формата               : 15 кадров
Идентификатор кодека                     : V_MPEG4/ISO/AVC
Продолжительность                        : 1 ч. 3 м.
Битрейт                                  : 1770 Кбит/сек
Ширина                                   : 690 пикселей
Высота                                   : 500 пикселей
Соотношение сторон                       : 3:2
Режим частоты кадров                     : Постоянный
Частота кадров                           : 25,000 кадров/сек
Цветовое пространство                    : YUV
Субдискретизация насыщенности            : 4:2:0
Битовая глубина                          : 8 бит
Тип развёртки                            : Прогрессивная
Бит/(Пиксели*Кадры)                      : 0.205
Размер потока                            : 807 Мбайт (86%)
Библиотека кодирования                   : x264 core 148 r2744kMod b97ae06
Настройки программы                      : cabac=1 / ref=15 / deblock=1:-2:-1 / analyse=0x3:0x133 / me=umh / subme=10 / psy=1 / fade_compensate=0.00 / psy_rd=1.05:0.10 / mixed_ref=1 / me_range=32 / chroma_me=1 / trellis=2 / 8x8dct=1 / cqm=0 / deadzone=21,11 / fast_pskip=1 / chroma_qp_offset=-3 / threads=12 / lookahead_threads=3 / sliced_threads=0 / nr=0 / decimate=1 / interlaced=0 / bluray_compat=0 / constrained_intra=0 / bframes=10 / b_pyramid=2 / b_adapt=2 / b_bias=0 / direct=1 / weightb=1 / open_gop=0 / weightp=2 / keyint=250 / keyint_min=25 / scenecut=40 / intra_refresh=0 / rc=crf / mbtree=0 / crf=18.0000 / qcomp=0.63 / qpmin=0 / qpmax=39 / qpstep=4 / ip_ratio=1.40 / pb_ratio=1.30 / aq=1:1.00
Язык                                     : English
Default                                  : Да
Forced                                   : Нет
Цветовой диапазон                        : Limited
Основные цвета                           : BT.601 PAL
Характеристики трансфера                 : BT.470 System B, BT.470 System G
Коэффициенты матрицы                     : BT.601

Аудио
Идентификатор                            : 2
Формат                                   : AC-3
Формат/Информация                        : Audio Coding 3
Параметр Endianness формата              : Big
Идентификатор кодека                     : A_AC3
Продолжительность                        : 1 ч. 3 м.
Вид битрейта                             : Постоянный
Битрейт                                  : 256 Кбит/сек
Каналы                                   : 2 канала
Расположение каналов                     : Front: L R
Частота                                  : 48,0 КГц
Частота кадров                           : 31,250 кадров/сек (1536 SPF)
Битовая глубина                          : 16 бит
Метод сжатия                             : С потерями
Размер потока                            : 117 Мбайт (12%)
Язык                                     : Russian
Default                                  : Да
Forced                                   : Нет




Скриншоты:
[+] Всего файлов в раздаче - 3:
Гулящие люди-3.mkv1.51 GB
Гулящие люди-2.mkv1.00 GB
Гулящие люди-1.mkv942.12 MB

Отзывы
Зарегистрируйтесь чтобы добавить комментарий.
Обратная связь
Copyleft ©