↑↓Torrent.by
Поиск
Логин: Регистрация
Пароль: Восстановить пароль
Загрузка...

Rammstein - Paris (2017) BDRip-HEVC 1080p от Cthulhu

Скачать rammstein-paris-2017-bdrip-hevc-1080p-ot-cthulhu.torrent
U Магнитная ссылка Размер: 11.61 GB Раздают: 33 Качают: 35 Добавлен: 2018-08-16 12:25:00
Rammstein - Paris (2017) BDRip-HEVC 1080p от Cthulhu

Название: Rammstein - Paris
Год выхода: 2017
Жанр: Индастриал метал
Продолжительность: 01:49:21

Страна:Великобритания
СтудияSpinefarm, Black Dog Films
Режиссер:Юнас Окерлунд

Описание:
Концертный фильм немецкой NDH-группы Rammstein. Премьера фильма состоялась 23 марта 2017 года в кинотеатрах, а затем 19 мая фильм выпустили во всех доступных форматах. Записан на концертах в Париже 6 и 7 марта 2012 года в рамках тура Made in Germany.

Файл
Кодек: HEVC x265
Качество: BDRip-HEVC 1080p
Видео: 1920x1080, 25,000 кадр/сек, 7564 Кбит/сек, (Main 10@L4.1@High), 8bit
Звук:
Аудио1: AC3 640 Кбит/сек, 6 канала(ов),16bit 48,0 КГц
Аудио2: DTS-HD MA 4763 Кбит/сек, 6 канала(ов),24bit 48,0 КГц (отдельно)
Навигация по главам: Есть

Релиз от: Cthulhu
[+] Состав:
Тилль Линдеманн — вокал,
Рихард Круспе — соло-гитара, бэк-вокал,
Пауль Ландерс — ритм-гитара, бэк-вокал,
Оливер Ридель — бас-гитара,
Кристоф Шнайдер — ударные,
Кристиан Лоренц — клавишные.



[+] Треклист:
01. Intro
02. Sonne
03. Wollt Ihr Das Bett In Flammen Sehen
04. Keine Lust
05. Sehnsucht
06. Asche Zu Asche
07. Feuer Frei!
08. Mutter
09. Mein Teil
10. Du Riechst So gut
11. Links 2-3-4
12. Du Hast
13. Haifisch
14. Bück Dich
15. Mann Gegen Mann
16. Ohne Dich
17. Mein Herz Brennt
18. Amerika
19. Ich Will
20. Engel
21. Pussy
22. Frühling In Paris
23. Making Of



[+] Mediainfo
General
Unique ID                   : 220890902008456848466997931936854846060 (0xA62E0A4E9D9A25A3A9081356DC482A6C)
Complete name               : T:HDFILMSRammstein - Paris 2017Rammstein - Paris (2017) BDRip 1080p [HEVC].mkv
Format                      : Matroska
Format version              : Version 4 / Version 2
File size                   : 7.35 GiB
Duration                    : 2 h 8 min
Overall bit rate            : 8 206 kb/s
Encoded date                : UTC 2017-09-13 15:24:24
Writing application         : mkvmerge v13.0.0 ('The Juggler') 64bit
Writing library             : libebml v1.3.4 + libmatroska v1.4.5
Cover                       : Yes
Attachments                 : cover.jpg

Video
ID                          : 1
Format                      : HEVC
Format/Info                 : High Efficiency Video Coding
Format profile              : Main@L4.1@High
Codec ID                    : V_MPEGH/ISO/HEVC
Duration                    : 2 h 8 min
Bit rate                    : 7 564 kb/s
Width                       : 1 920 pixels
Height                      : 1 080 pixels
Display aspect ratio        : 16:9
Frame rate mode             : Constant
Frame rate                  : 25.000 FPS
Color space                 : YUV
Chroma subsampling          : 4:2:0
Bit depth                   : 8 bits
Bits/(Pixel*Frame)          : 0.146
Stream size                 : 6.77 GiB (92%)
Writing library             : x265 2.5+16-bac53338585c:[Windows][GCC 7.1.0][64 bit] 8bit
Encoding settings           : cpuid=1050111 / frame-threads=5 / numa-pools=4 / wpp / no-pmode / no-pme / no-psnr / no-ssim / log-level=3 / input-csp=1 / input-res=1920x1080 / interlace=0 / total-frames=0 / level-idc=41 / high-tier=1 / uhd-bd=0 / ref=4 / no-allow-non-conformance / no-repeat-headers / annexb / no-aud / no-hrd / info / hash=0 / no-temporal-layers / open-gop / min-keyint=23 / keyint=250 / bframes=10 / b-adapt=2 / b-pyramid / bframe-bias=0 / rc-lookahead=40 / lookahead-slices=6 / scenecut=40 / no-intra-refresh / ctu=64 / min-cu-size=8 / no-rect / no-amp / max-tu-size=32 / tu-inter-depth=2 / tu-intra-depth=2 / limit-tu=0 / rdoq-level=0 / dynamic-rd=0.00 / no-ssim-rd / signhide / no-tskip / nr-intra=0 / nr-inter=0 / no-constrained-intra / strong-intra-smoothing / max-merge=3 / limit-refs=3 / no-limit-modes / me=2 / subme=6 / merange=32 / temporal-mvp / weightp / weightb / no-analyze-src-pics / deblock=-3:-3 / no-sao / no-sao-non-deblock / rd=3 / no-early-skip / rskip / no-fast-intra / no-tskip-fast / no-cu-lossless / no-b-intra / no-splitrd-skip / rdpenalty=0 / psy-rd=2.00 / psy-rdoq=0.00 / no-rd-refine / analysis-reuse-mode=0 / no-lossless / cbqpoffs=0 / crqpoffs=0 / rc=crf / crf=20.0 / qcomp=0.60 / qpstep=4 / stats-write=0 / stats-read=0 / vbv-maxrate=50000 / vbv-bufsize=35714 / vbv-init=0.9 / crf-max=30.0 / crf-min=0.0 / ipratio=1.40 / pbratio=1.30 / aq-mode=1 / aq-strength=0.80 / cutree / zone-count=0 / no-strict-cbr / qg-size=32 / no-rc-grain / qpmax=69 / qpmin=0 / no-const-vbv / sar=1 / overscan=0 / videoformat=5 / range=0 / colorprim=2 / transfer=2 / colormatrix=2 / chromaloc=0 / display-window=0 / max-cll=0,0 / min-luma=0 / max-luma=255 / log2-max-poc-lsb=8 / vui-timing-info / vui-hrd-info / slices=1 / opt-qp-pps / opt-ref-list-length-pps / no-multi-pass-opt-rps / scenecut-bias=0.05 / no-opt-cu-delta-qp / no-aq-motion / no-hdr / no-hdr-opt / no-dhdr10-opt / analysis-reuse-level=5 / scale-factor=0 / refine-intra=0 / refine-inter=0 / refine-mv=0 / no-limit-sao / ctu-info=0
Language                    : German
Default                     : Yes
Forced                      : No

Audio
ID                          : 2
Format                      : AC-3
Format/Info                 : Audio Coding 3
Codec ID                    : A_AC3
Duration                    : 2 h 8 min
Bit rate mode               : Constant
Bit rate                    : 640 kb/s
Channel(s)                  : 6 channels
Channel positions           : Front: L C R, Side: L R, LFE
Sampling rate               : 48.0 kHz
Frame rate                  : 31.250 FPS (1536 SPF)
Bit depth                   : 16 bits
Compression mode            : Lossy
Stream size                 : 587 MiB (8%)
Language                    : German
Service kind                : Complete Main
Default                     : Yes
Forced                      : No

Menu
00:00:00.000                : :Глава 1
00:05:45.040                : :Глава 2
00:10:46.400                : :Глава 3
00:15:47.560                : :Глава 4
00:19:57.000                : :Глава 5
00:24:21.960                : :Глава 6
00:28:29.360                : :Глава 7
00:32:02.840                : :Глава 8
00:37:26.080                : :Глава 9
00:45:10.000                : :Глава 10
00:50:38.480                : :Глава 11
00:55:41.520                : :Глава 12
00:59:59.960                : :Глава 13
01:06:57.560                : :Глава 14
01:14:52.400                : :Глава 15
01:19:07.840                : :Глава 16
01:27:21.120                : :Глава 17
01:32:27.600                : :Глава 18
01:37:21.920                : :Глава 19
01:41:26.160                : :Глава 20
01:46:42.120                : :Глава 21
02:01:47.600                : :Глава 22




Скриншоты:
[+] Всего файлов в раздаче - 2:
Rammstein - Paris (2017) BDRip 1080p [HEVC].mkv7.35 GB
Rammstein - Paris2017 DTS-HD MA, 6 ch, 4763 Кбит.с.dts4.26 GB

Текущая раздача:
ДатаКомментарии    РазмерПиры
2018-08-16 U Rammstein - Paris (2017) BDRip-HEVC 1080p от Cthulhu 11.61 GB ↑ 33 ↓ 35

Показать еще раздачи по запросу rammstein:
2018-03-09 U Rammstein - Видеоколлекция (2018) BDRip, DVDRip 4.28 GB ↑ 63 ↓ 69
2018-01-25 U Rammstein - Essentials (2018) MP3 234.60 MB ↑ 378 ↓ 62
2017-05-22 U Rammstein - Paris: Live (2017) BDRip 720p 7.39 GB ↑ 602 ↓ 100
2017-05-22 U Rammstein - Paris: Live (2017) BDRip от GeneralFilm 2.17 GB ↑ 432 ↓ 127
2017-05-22 U Rammstein - Paris: Live (2017) BDRip 1080p 11.74 GB ↑ 986 ↓ 180
2017-05-21 U Rammstein - Paris: Live (2017) DVDRip от ImperiaFilm 1К1.80 GB ↑ 335 ↓ 124
2017-05-21 U Rammstein - Paris: Live (2017) DVD9 7.78 GB ↑ 85 ↓ 64

Отзывы
Зарегистрируйтесь чтобы добавить комментарий.
Обратная связь
Copyleft ©