↑↓Torrent.by
Поиск
Логин: Регистрация
Пароль: Восстановить пароль
Загрузка...

Гоголь. Вий (2018) BDRip-AVC от ExKinoRay | Лицензия

Скачать gogol-viy-2018-bdrip-avc-ot-exkinoray-licenziya.torrent
U Магнитная ссылка Размер: 1.50 GB Раздают: 54 Качают: 27 Добавлен: 2018-08-17 07:58:26
Гоголь. Вий (2018) BDRip-AVC от ExKinoRay | Лицензия

Информация о фильме
Название: Гоголь. Вий
Год выхода: 2018
Жанр: Детектив, приключения, драма
Режиссер: Егор Баранов
В ролях: Александр Петров (II), Олег Меньшиков, Евгений Стычкин, Таисия Вилкова, Артём Ткаченко, Екатерина Бурлакова, Сергей Бадюк, Ян Цапник, Алексей Вертков, Марта Тимофеева

О фильме:  
Писарь из Санкт-Петербурга Николай Гоголь бросает вызов загадочному тёмному Всаднику, который жестоко расправляется с девушками в окрестностях села Диканька. Собрав команду из местного полицейского, пьяницы-доктора, суеверного кузнеца и странствующего философа-экзорциста, Гоголь пытается заманить злодея в ловушку, но на его пути встает самое жуткое порождение нечистой силы — Вий, один взгляд которого способен высосать душу смертного. Неожиданно для себя Гоголь выясняет, что с потусторонними силами его связывают не только таинственные видения.

Страна: Россия
Студия: Продюсерская компания «Среда»
Продолжительность: 01:39:13
Язык: Русский | Лицензия
Субтитры: Русские, английские

Формат: MKV
Качество: BDRip-AVC
Видео: MPEG-4 AVC, 1024x428 (2.40:1), 24.000 fps, 1720 Kbps, 0.164 bit/pixel
Аудио: 48 kHz, AC3, 5.1 ch, ~448 kbps avg - Rus

Релиз:

Автор релиза:


[+] МИ
x264 [info]: frame I:45 Avg QP:14.75 size: 40321
x264 [info]: frame P:566 Avg QP:17.26 size: 15808
x264 [info]: frame B:1917 Avg QP:19.75 size: 3916
____________________________________________
General
Unique ID : 171932205228096324458474163314802290530 (0x8158F030D89995BF802FA0E543B7EF62)
Complete name : D:GOGOL.VIY.2018.O.BDRip.AVC.ExKinoRay.mkv
Format : Matroska
Format version : Version 2
File size : 1.50 GiB
Duration : 1 h 39 min
Overall bit rate : 2 166 kb/s
Movie name : Gogol Viy (2018) from ExKinoRay
Encoded date : UTC 2018-08-17 02:18:27
Writing application : mkvmerge v5.6.0 ('Kenya Kane') built on May 27 2012 16:44:04
Writing library : libebml v1.2.3 + libmatroska v1.3.0

Video
ID : 1
Format : AVC
Format/Info : Advanced Video Codec
Format profile : High@L4.1
Format settings, CABAC : Yes
Format settings, ReFrames : 12 frames
Codec ID : V_MPEG4/ISO/AVC
Duration : 1 h 39 min
Bit rate : 1 720 kb/s
Width : 1 024 pixels
Height : 428 pixels
Display aspect ratio : 2.40:1
Frame rate mode : Constant
Frame rate : 24.000 FPS
Color space : YUV
Chroma subsampling : 4:2:0
Bit depth : 8 bits
Scan type : Progressive
Bits/(Pixel*Frame) : 0.164
Stream size : 1.16 GiB (77%)
Title : Enigma
Writing library : x264 core 152 r2851 ba24899
Encoding settings : cabac=1 / ref=12 / deblock=1:-2:-2 / analyse=0x3:0x113 / me=umh / subme=10 / psy=1 / psy_rd=1.05:0.10 / mixed_ref=1 / me_range=32 / chroma_me=1 / trellis=2 / 8x8dct=1 / cqm=0 / deadzone=21,11 / fast_pskip=0 / chroma_qp_offset=-3 / threads=12 / lookahead_threads=3 / sliced_threads=0 / nr=0 / decimate=0 / interlaced=0 / bluray_compat=0 / constrained_intra=0 / bframes=12 / b_pyramid=2 / b_adapt=2 / b_bias=0 / direct=3 / weightb=1 / open_gop=0 / weightp=2 / keyint=240 / keyint_min=23 / scenecut=40 / intra_refresh=0 / rc=2pass / mbtree=0 / bitrate=1720 / ratetol=1.0 / qcomp=0.65 / qpmin=0 / qpmax=51 / qpstep=4 / cplxblur=20.0 / qblur=0.5 / ip_ratio=1.40 / pb_ratio=1.30 / aq=2:0.90
Language : English
Default : Yes
Forced : No
Color range : Limited
Color primaries : BT.709
Transfer characteristics : BT.709
Matrix coefficients : BT.709

Audio
ID : 2
Format : AC-3
Format/Info : Audio Coding 3
Mode extension : CM (complete main)
Format settings, Endianness : Big
Codec ID : A_AC3
Duration : 1 h 39 min
Bit rate mode : Constant
Bit rate : 448 kb/s
Channel(s) : 6 channels
Channel positions : Front: L C R, Side: L R, LFE
Sampling rate : 48.0 kHz
Frame rate : 31.250 FPS (1536 spf)
Compression mode : Lossy
Stream size : 318 MiB (21%)
Title : License
Language : Russian
Default : Yes
Forced : No

Text #1
ID : 3
Format : UTF-8
Codec ID : S_TEXT/UTF8
Codec ID/Info : UTF-8 Plain Text
Title : Full
Language : Russian
Default : No
Forced : No

Text #2
ID : 4
Format : UTF-8
Codec ID : S_TEXT/UTF8
Codec ID/Info : UTF-8 Plain Text
Title : Full
Language : English
Default : No
Forced : No

Menu
00:00:00.000 : en:Chapter 1
00:00:30.041 : en:Chapter 2
00:12:28.250 : en:Chapter 3
00:25:02.416 : en:Chapter 4
00:35:45.250 : en:Chapter 5
00:49:36.458 : en:Chapter 6
01:00:24.041 : en:Chapter 7
01:14:40.166 : en:Chapter 8
01:27:46.000 : en:Chapter 9



Скриншоты:
[+] Всего файлов в раздаче - 1:
GOGOL.VIY.2018.O.BDRip.AVC.ExKinoRay.mkv1.50 GB

Текущая раздача:
ДатаКомментарии    РазмерПиры
2018-08-17 U Гоголь. Вий (2018) BDRip-AVC от ExKinoRay | Лицензия 1.50 GB ↑ 54 ↓ 27

Показать еще раздачи по запросу гоголь:
2018-10-11 U Гоголь. Страшная месть (2018) WEB-DLRip от Generalfilm | КПК | iTunes 405.37 MB ↑ 120 ↓ 13
2018-10-11 U Гоголь. Страшная месть (2018) WEB-DLRip от ExKinoRay | iTunes 746.04 MB ↑ 87 ↓ 17
2018-10-11 U Гоголь. Страшная месть (2018) WEB-DLRip от Scarabey | iTunes 1К1.44 GB ↑ 317 ↓ 81
2018-10-10 U Гоголь. Страшная месть (2018) WEB-DLRip-AVC от Generalfilm| iTunes 1.39 GB ↑ 432 ↓ 103
2018-10-10 U Гоголь. Страшная месть (2018) WEB-DLRip-AVC | iTunes 743.35 MB ↑ 168 ↓ 25
2018-10-10 U Гоголь. Страшная месть (2018) WEB-DLRip-AVC от ExKinoRay | iTunes 1.64 GB ↑ 215 ↓ 85
2018-10-10 U Гоголь. Страшная месть (2018) WEB-DLRip от GeneralFilm | iTunes 746.08 MB ↑ 184 ↓ 79

Отзывы
Зарегистрируйтесь чтобы добавить комментарий.
Обратная связь
Copyleft ©