↑↓Torrent.by
Поиск
Логин: Регистрация
Пароль: Восстановить пароль
Загрузка...

Крутой (2012) WEB-DL 1080р

Скачать krutoy-2012-web-dl-1080r.torrent
U Магнитная ссылка Размер: 3.10 GB Раздают: 72 Качают: 70 Добавлен: 2018-08-17 18:48:31
Крутой (2012) WEB-DL 1080р

Крутой

Страна: Россия
Производство: Триикс Медиа
Год выпуска: 2012
Жанр:  боевик, детектив
Продолжительность: 01:26:37

Режиссер: Максим Демченко
Автор сценария: Константин Горский

В ролях: Максим Дрозд, Михаил Полосухин, Анна Лутцева, Сергей Гамов, Виктор Смирнов, Александр Строев, Наталья Бурмистрова, Андрей Тутов

Описание: Каверин, некогда служивший в ОМОНе, начинает работать на себя — он перевозит грузы и никогда не спрашивает заказчика о том, что внутри. Однажды, доставив груз, Каверин видит, что в чемодане, который он вёз — связанная девочка. Люди заказчика похитили её и Каверин, сам не зная о содержимом посылки, доставил девочку главарю банды. За девочку требуют выкуп, саму же её хотят убить, чтобы избавиться от свидетеля. Среди бандитов — Брыль — бывший сослуживец и враг Каверина. Каверин вступает в схватку с бандитами, ему удается отбить у них девочку, и скрыться. Каверин, преследуемый бандитами, идущими по пятам, начинает поиск родителей девочки...

Перевод: не требуется (оригинал)
Субтитры: нет

Качество: WEB-DL 1080р
Формат: МКV
Видео кодек: AVC
Аудио кодек: АС3
Видео: 1920x1080 (16:9), 25.000 fps, MPEG-4 AVC ~4 807 kbps avg
Аудио: 48.0 kHz, AC3 Dolby Digital, 2/0 (L,R) ch, ~192 kbps

Дата премьеры (мир): 5 января 2013

Релиз от: Aлexandr


[+] Media Info
General
General
Unique ID                      : 203471641678095475053011103806411923746 (0x991336770E492BC34451BA4D8E6A6122)
Complete name                  : Крутой (2012).by.Алехаndr.mkv
Format                         : Matroska
Format version                 : Version 4 / Version 2
File size                      : 3.10 GiB
Duration                       : 1h 26mn
Overall bit rate               : 5 100 Kbps
Encoded date                   : UTC 2018-08-16 11:50:13
Writing application            : mkvmerge v25.0.0 ('Prog Noir') 64-bit
Writing library                : libebml v1.3.6 + libmatroska v1.4.9

Video
ID                             : 1
Format                         : AVC
Format/Info                    : Advanced Video Codec
Format profile                 : Main@L4
Format settings, CABAC         : Yes
Format settings, ReFrames      : 1 frame
Codec ID                       : V_MPEG4/ISO/AVC
Duration                       : 1h 26mn
Bit rate                       : 4 807 Kbps
Width                          : 1 920 pixels
Height                         : 1 080 pixels
Display aspect ratio           : 16:9
Frame rate mode                : Constant
Frame rate                     : 25.000 fps
Color space                    : YUV
Chroma subsampling             : 4:2:0
Bit depth                      : 8 bits
Scan type                      : Progressive
Bits/(Pixel*Frame)             : 0.093
Stream size                    : 2.92 GiB (94%)
Default                        : Yes
Forced                         : No

Audio
ID                             : 2
Format                         : AC-3
Format/Info                    : Audio Coding 3
Mode extension                 : CM (complete main)
Format settings, Endianness    : Big
Codec ID                       : A_AC3
Duration                       : 1h 26mn
Bit rate mode                  : Constant
Bit rate                       : 192 Kbps
Channel(s)                     : 2 channels
Channel positions              : Front: L R
Sampling rate                  : 48.0 KHz
Compression mode               : Lossy
Stream size                    : 119 MiB (4%)
Default                        : Yes
Forced                         : No



Скриншоты:
[+] Всего файлов в раздаче - 1:
Крутой (2012).by.Алехаndr.mkv3.10 GB

Текущая раздача:
ДатаКомментарии    РазмерПиры
2018-08-17 U Крутой (2012) WEB-DL 1080р 3.10 GB ↑ 72 ↓ 70

Показать еще раздачи по запросу крутой:
2018-08-18 U Крутой (2012) WEB-DLRip 744.97 MB ↑ 75 ↓ 18
2018-08-18 U Крутой (2012) WEB-DLRip от MegaPeer 1.37 GB ↑ 164 ↓ 29
2017-07-01 U Крутой Сэм HD: Второе Пришествие / Serious Sam HD: The Second Encounter [v 263699] (2010) PC | Steam-Rip от Let'sРlay 3.87 GB ↑ 148 ↓ 59
2016-02-27 U Крутой портрет. Ретушь. Идеальный цвет (2015) PCRec 6.05 GB ↑ 743 ↓ 5
2016-01-26 U Крутой Сэм 3: BFE / Serious Sam 3: BFE (2011) PC | RePack от xatab 3К5.69 GB ↑ 244 ↓ 134
2015-12-18 U Король Сингх 2 / Крутой Сингх / Singh Is Bling (2015) DVDRip | L2 1К2.06 GB ↑ 154 ↓ 64
2015-11-11 U Крутой Сэм 3: BFE / Serious Sam 3: BFE (2011) PC | RePack от R.G. Механики 1К3.32 GB ↑ 171 ↓ 159

Отзывы
Зарегистрируйтесь чтобы добавить комментарий.
Обратная связь
Copyleft ©