↑↓Torrent.by
Поиск
Логин: Регистрация
Пароль: Восстановить пароль
Загрузка...

Разочарование / Disenchantment [01x01-02 из 10] (2018) WEBRip 720p | OMSKBIRD

Скачать razocharovanie-disenchantment-01x01-02-iz-10-2018-webrip-720p-omskbird.torrent
U Магнитная ссылка Размер: 1.37 GB Раздают: 80 Качают: 18 Добавлен: 2018-08-18 11:47:10
Разочарование / Disenchantment [01x01-02 из 10] (2018) WEBRip 720p | OMSKBIRD

Название: Разочарование
Оригинальное название: Disenchantment
Год выхода: 2018
Жанр: мультфильм, фэнтези, комедия, приключения
Режиссер: Мэтт Грейнинг
В ролях: Эрик Андре, Мэтт Берри, Джон Ди Маджио, Нат Факсон, Ноэль Филдинг, Дэвид Херман, Эбби Джейкобсон, Морис ЛаМарш, Тресс МакНилл, Билли Уэст и др.

О фильме:
Действие разворачивается в Средневековье в королевстве Бинландия, где живёт юная принцесса-алкоголичка Бин. Отказавшись выходить замуж, Бин отправляется в путешествие по стране в компании эльфа и демона. По дороге трио встретит множество фантастических тварей и дураков людского происхождения.

Страна: США
Продолжительность: ~ 00:30:00 серия
Перевод: Любительский (многоголосый закадровый) | OMSKBIRD

Файл
Кодек: MPEG-4 AVC
Качество: WEBRip 720p
Видео: AVC, 1280x720 (16:9), 23.976 fps, ~ 3000 kbps
Звук: Аудио rus: AC-3, 48 KHz, 2 ch, 192 kbps | OMSKBIRD

Семпл

Присутствует реклама!


[+] Mediainfo:


General
Unique ID                   : 253889892598567372381203299216114977443 (0xBF016A2807415DCB840475CD7EFA0AA3)
Complete name               : H:Мои ДокументыВидеоРАЗДАЧИРазочарованиеDisenchantment S01 WEBRip 720p (OMSKBIRD)Disenchantment S01E01 WEBRip 720p (OMSKBIRD).mkv
Format                      : Matroska
Format version              : Version 2
File size                   : 791 MiB
Duration                    : 36 min 47 s
Overall bit rate            : 3 005 kb/s
Encoded date                : UTC 2018-08-17 18:03:22
Writing application         : mkvmerge v4.0.0 ('The Stars were mine') сборка от Jun  6 2010 16:18:42
Writing library             : libebml v1.0.0 + libmatroska v1.0.0

Video
ID                          : 1
Format                      : AVC
Format/Info                 : Advanced Video Codec
Format profile              : Main@L4.1
Format settings, CABAC      : Yes
Format settings, RefFrames  : 3 frames
Codec ID                    : V_MPEG4/ISO/AVC
Duration                    : 36 min 47 s
Bit rate                    : 2 753 kb/s
Width                       : 1 280 pixels
Height                      : 720 pixels
Display aspect ratio        : 16:9
Frame rate mode             : Constant
Frame rate                  : 23.976 (24000/1001) FPS
Standard                    : NTSC
Color space                 : YUV
Chroma subsampling          : 4:2:0
Bit depth                   : 8 bits
Scan type                   : Progressive
Bits/(Pixel*Frame)          : 0.125
Stream size                 : 725 MiB (92%)
Language                    : English
Default                     : Yes
Forced                      : No
Color range                 : Limited
Color primaries             : BT.709
Transfer characteristics    : BT.709
Matrix coefficients         : BT.709

Audio
ID                          : 2
Format                      : AC-3
Format/Info                 : Audio Coding 3
Format settings, Endianness : Big
Codec ID                    : A_AC3
Duration                    : 36 min 47 s
Bit rate mode               : Constant
Bit rate                    : 192 kb/s
Channel(s)                  : 2 channels
Channel positions           : Front: L R
Sampling rate               : 48.0 kHz
Frame rate                  : 31.250 FPS (1536 SPF)
Bit depth                   : 16 bits
Compression mode            : Lossy
Stream size                 : 50.5 MiB (6%)
Service kind                : Complete Main
Default                     : Yes
Forced                      : No




Скриншоты:
[+] Всего файлов в раздаче - 2:
Disenchantment S01E01 WEBRip 720p (OMSKBIRD).mkv790.99 MB
Disenchantment S01E02 WEBRip 720p (OMSKBIRD).mkv613.95 MB

Текущая раздача:
ДатаКомментарии    РазмерПиры
2018-08-18 U Разочарование / Disenchantment [01x01-02 из 10] (2018) WEBRip 720p | OMSKBIRD 1.37 GB ↑ 80 ↓ 18

Показать еще раздачи по запросу разочарование:
2018-08-25 U Разочарование / Disenchantment [01x01-07 из 10] (2018) WEBRip 720p | AlexFilm 4.74 GB ↑ 50 ↓ 25
2018-08-24 U Разочарование / Disenchantment [S01] (2018) WEBRip 1080p | AlexFilm 10.78 GB ↑ 142 ↓ 168
2018-08-24 U Разочарование / Disenchantment [01x01-07 из 10] (2018) WEBRip 1080p | AlexFilm 7.69 GB ↑ 42 ↓ 24
2018-08-21 U Разочарование / Disenchantment [S01] (2018) WEBRip 720p | OMSKBIRD 6.26 GB ↑ 49 ↓ 19
2018-08-20 U Разочарование / Disenchantment [01x01-04 из 10] (2018) WEBRip 1080p | AlexFilm 4.54 GB ↑ 56 ↓ 34
2018-08-20 U Разочарование / Disenchantment [S01] (2018) WEBRip | ColdFilm 2.49 GB ↑ 73 ↓ 29
2018-08-19 U Разочарование / Disenchantment [S01] (2018) WEBRip 1080p | ColdFilm 9.49 GB ↑ 111 ↓ 52

Отзывы
Зарегистрируйтесь чтобы добавить комментарий.
Обратная связь
Copyleft ©