↑↓Torrent.by
Поиск
Логин: Регистрация
Пароль: Восстановить пароль
Загрузка...

Разочарование / Disenchantment [01x01-02 из 10] (2018) WEBRip | OMSKBIRD

Скачать razocharovanie-disenchantment-01x01-02-iz-10-2018-webrip-omskbird.torrent
U Магнитная ссылка Размер: 887.76 MB Раздают: 55 Качают: 12 Добавлен: 2018-08-18 11:47:22
Разочарование / Disenchantment [01x01-02 из 10] (2018) WEBRip | OMSKBIRD

Название: Разочарование
Оригинальное название: Disenchantment
Год выхода: 2018
Жанр: мультфильм, фэнтези, комедия, приключения
Режиссер: Мэтт Грейнинг
В ролях: Эрик Андре, Мэтт Берри, Джон Ди Маджио, Нат Факсон, Ноэль Филдинг, Дэвид Херман, Эбби Джейкобсон, Морис ЛаМарш, Тресс МакНилл, Билли Уэст и др.

О фильме:
Действие разворачивается в Средневековье в королевстве Бинландия, где живёт юная принцесса-алкоголичка Бин. Отказавшись выходить замуж, Бин отправляется в путешествие по стране в компании эльфа и демона. По дороге трио встретит множество фантастических тварей и дураков людского происхождения.

Страна: США
Продолжительность: ~ 00:30:00 серия
Перевод: Любительский (многоголосый закадровый) | OMSKBIRD

Файл
Кодек: Xvid
Качество: WEBRip  
Видео: AVI, 720x400 (16:9), 23.976 fps, ~ 1800 kbps
Звук: Аудио rus: AC-3, 48 KHz, 2 ch, 192 kbps | OMSKBIRD

Семпл

Присутствует реклама!


[+] Mediainfo:


General
Complete name               : H:Мои ДокументыВидеоРАЗДАЧИРазочарованиеDisenchantment S01 WEBRip (OMSKBIRD)Disenchantment S01E01 WEBRip (OMSKBIRD).avi
Format                      : AVI
Format/Info                 : Audio Video Interleave
File size                   : 503 MiB
Duration                    : 36 min 47 s
Overall bit rate            : 1 910 kb/s
Writing application         : VirtualDubMod 1.5.10.3 | www.virtualdub-fr.org || (build 2550/release)
Writing library             : VirtualDubMod build 2550/release

Video
ID                          : 0
Format                      : MPEG-4 Visual
Format profile              : Advanced Simple@L5
Format settings, BVOP       : 1
Format settings, QPel       : No
Format settings, GMC        : No warppoints
Format settings, Matrix     : Default (H.263)
Codec ID                    : XVID
Codec ID/Hint               : XviD
Duration                    : 36 min 47 s
Bit rate                    : 1 708 kb/s
Width                       : 720 pixels
Height                      : 400 pixels
Display aspect ratio        : 16:9
Frame rate                  : 23.976 (24000/1001) FPS
Color space                 : YUV
Chroma subsampling          : 4:2:0
Bit depth                   : 8 bits
Scan type                   : Progressive
Compression mode            : Lossy
Bits/(Pixel*Frame)          : 0.247
Stream size                 : 449 MiB (89%)
Writing library             : XviD 67

Audio
ID                          : 1
Format                      : AC-3
Format/Info                 : Audio Coding 3
Format settings, Endianness : Big
Codec ID                    : 2000
Duration                    : 36 min 47 s
Bit rate mode               : Constant
Bit rate                    : 192 kb/s
Channel(s)                  : 2 channels
Channel positions           : Front: L R
Sampling rate               : 48.0 kHz
Frame rate                  : 31.250 FPS (1536 SPF)
Bit depth                   : 16 bits
Compression mode            : Lossy
Stream size                 : 50.5 MiB (10%)
Alignment                   : Split accross interleaves
Interleave, duration        : 42  ms (1.00 video frame)
Interleave, preload duratio : 500  ms
Service kind                : Complete Main




Скриншоты:
[+] Всего файлов в раздаче - 2:
Disenchantment S01E01 WEBRip (OMSKBIRD).avi502.53 MB
Disenchantment S01E02 WEBRip (OMSKBIRD).avi385.23 MB

Текущая раздача:
ДатаКомментарии    РазмерПиры
2018-08-18 U Разочарование / Disenchantment [01x01-02 из 10] (2018) WEBRip | OMSKBIRD 887.76 MB ↑ 55 ↓ 12

Показать еще раздачи по запросу разочарование:
2018-08-25 U Разочарование / Disenchantment [01x01-07 из 10] (2018) WEBRip 720p | AlexFilm 4.74 GB ↑ 50 ↓ 25
2018-08-24 U Разочарование / Disenchantment [S01] (2018) WEBRip 1080p | AlexFilm 10.78 GB ↑ 142 ↓ 168
2018-08-24 U Разочарование / Disenchantment [01x01-07 из 10] (2018) WEBRip 1080p | AlexFilm 7.69 GB ↑ 42 ↓ 24
2018-08-21 U Разочарование / Disenchantment [S01] (2018) WEBRip 720p | OMSKBIRD 6.26 GB ↑ 49 ↓ 19
2018-08-20 U Разочарование / Disenchantment [01x01-04 из 10] (2018) WEBRip 1080p | AlexFilm 4.54 GB ↑ 56 ↓ 34
2018-08-20 U Разочарование / Disenchantment [S01] (2018) WEBRip | ColdFilm 2.49 GB ↑ 72 ↓ 28
2018-08-19 U Разочарование / Disenchantment [S01] (2018) WEBRip 1080p | ColdFilm 9.49 GB ↑ 111 ↓ 52

Отзывы
Зарегистрируйтесь чтобы добавить комментарий.
Обратная связь
Copyleft ©