↑↓Torrent.by
Поиск
Логин: Регистрация
Пароль: Восстановить пароль
Загрузка...

Апгрейд / Upgrade (2018) BDRip 1080p | Sub

Скачать apgreyd-upgrade-2018-bdrip-1080p-sub.torrent
U Магнитная ссылка Размер: 6.87 GB Раздают: 108 Качают: 138 Добавлен: 2018-08-18 14:27:46
Апгрейд / Upgrade (2018) BDRip 1080p | Sub

Название: Апгрейд
Оригинальное название: Upgrade
Год выхода: 2018
Жанр: фантастика, боевик, триллер, детектив, криминал
Режиссер: Ли Уоннелл
В ролях: Логан Маршалл-Грин, Ричард Анастасиос, Роско Кэмпбелл, Ричард Коуторн, Линда Кроппер, Стив Даниелсен, Майкл М. Фостер, Бетти Гэбриел, Рена Галлахер, Харрисон Гилбертсон

О фильме:
Действие разворачивается в ближайшем будущем, в котором разнообразные технологии участвуют во всех аспектах человеческой жизни. Но в этом технологичном будущем Грей — один из немногих людей, кто любит работать руками. Он восстанавливает и чинит старые автомобили. Однажды, возвращаясь от клиента, Грей с женой попадают в аварию, а после — в руки банды отморозков, в результате чего женщина погибает, а Грей оказывается парализованным ниже шеи. Тот самый богатый клиент предлагает несчастному поставить экспериментальный имплант Stem, который может полностью восстановить подвижность.

Страна: Австралия
Студия: Blumhouse Productions, Goalpost Pictures
Продолжительность: 01:39:54
Перевод: СУБТИТРЫ

Файл
Кодек: x.264
Качество: BDRip 1080p | Upgrade.2018.1080p.BluRay.x264-DRONES
Видео: MPEG-4 AVC, 1920x808, 9455 Kбит/с, 23.976 кадр/с
Звук: Аудио #1: Английский ( АС3, 6ch, 384 Кбит/с, 48.0 KHz)
Субтитры: Русские (полные) (внешние .srt*), английские


[+] MediaInfo
Источник: Upgrade.2018.1080p.BluRay.x264-DRONES
General
Unique ID                      : 245120042493730208628730455972521839256 (0xB8686729C02BED639AACBDA8238A0A98)
Complete name                  : Upgrade.2018.BDRip.1080p.Sub.mkv
Format                         : Matroska
Format version                 : Version 4 / Version 2
File size                      : 6.87 GiB
Duration                       : 1 h 39 min
Overall bit rate               : 9 840 kb/s
Encoded date                   : UTC 2018-08-17 21:17:05
Writing application            : mkvmerge v7.1.0 ('Good Love') 64bit built on Jul 27 2014 13:06:55
Writing library                : libebml v1.3.0 + libmatroska v1.4.1

Video
ID                             : 1
Format                         : AVC
Format/Info                    : Advanced Video Codec
Format profile                 : High@L4.1
Format settings                : CABAC / 5 Ref Frames
Format settings, CABAC         : Yes
Format settings, ReFrames      : 5 frames
Codec ID                       : V_MPEG4/ISO/AVC
Duration                       : 1 h 39 min
Bit rate                       : 9 455 kb/s
Width                          : 1 920 pixels
Height                         : 808 pixels
Display aspect ratio           : 2.40:1
Frame rate mode                : Constant
Frame rate                     : 23.976 (24000/1001) FPS
Color space                    : YUV
Chroma subsampling             : 4:2:0
Bit depth                      : 8 bits
Scan type                      : Progressive
Bits/(Pixel*Frame)             : 0.254
Stream size                    : 6.60 GiB (96%)
Writing library                : x264 core 155 r2901 7d0ff22
Encoding settings              : cabac=1 / ref=5 / deblock=1:-3:-3 / analyse=0x3:0x133 / me=umh / subme=8 / psy=1 / psy_rd=1.00:0.00 / mixed_ref=1 / me_range=16 / chroma_me=1 / trellis=1 / 8x8dct=1 / cqm=0 / deadzone=21,11 / fast_pskip=0 / chroma_qp_offset=-2 / threads=25 / lookahead_threads=4 / sliced_threads=0 / nr=0 / decimate=1 / interlaced=0 / bluray_compat=0 / constrained_intra=0 / bframes=3 / b_pyramid=2 / b_adapt=1 / b_bias=0 / direct=3 / weightb=1 / open_gop=0 / weightp=2 / keyint=250 / keyint_min=23 / scenecut=40 / intra_refresh=0 / rc_lookahead=50 / rc=2pass / mbtree=1 / bitrate=9455 / ratetol=1.0 / qcomp=0.60 / qpmin=0 / qpmax=69 / qpstep=4 / cplxblur=20.0 / qblur=0.5 / vbv_maxrate=62500 / vbv_bufsize=78125 / nal_hrd=none / filler=0 / ip_ratio=1.40 / aq=1:1.00
Language                       : English
Default                        : Yes
Forced                         : No

Audio
ID                             : 2
Format                         : AC-3
Format/Info                    : Audio Coding 3
Codec ID                       : A_AC3
Duration                       : 1 h 39 min
Bit rate mode                  : Constant
Bit rate                       : 384 kb/s
Channel(s)                     : 6 channels
Channel positions              : Front: L C R, Side: L R, LFE
Sampling rate                  : 48.0 kHz
Frame rate                     : 31.250 FPS (1536 SPF)
Bit depth                      : 16 bits
Compression mode               : Lossy
Stream size                    : 274 MiB (4%)
Language                       : English
Service kind                   : Complete Main
Default                        : Yes
Forced                         : No

Text #1
ID                             : 3
Format                         : UTF-8
Codec ID                       : S_TEXT/UTF8
Codec ID/Info                  : UTF-8 Plain Text
Duration                       : 1 h 32 min
Bit rate                       : 88 b/s
Count of elements              : 1290
Stream size                    : 59.6 KiB (0%)
Title                          : new-1
Language                       : Russian
Default                        : Yes
Forced                         : No

Text #2
ID                             : 4
Format                         : UTF-8
Codec ID                       : S_TEXT/UTF8
Codec ID/Info                  : UTF-8 Plain Text
Duration                       : 1 h 32 min
Bit rate                       : 88 b/s
Count of elements              : 1290
Stream size                    : 59.6 KiB (0%)
Title                          : by_Dalemake_Rus
Language                       : Russian
Default                        : No
Forced                         : No

Text #3
ID                             : 5
Format                         : UTF-8
Codec ID                       : S_TEXT/UTF8
Codec ID/Info                  : UTF-8 Plain Text
Duration                       : 1 h 33 min
Bit rate                       : 52 b/s
Count of elements              : 1292
Stream size                    : 35.9 KiB (0%)
Language                       : English
Default                        : No
Forced                         : No

Menu
00:00:00.000                   : en:00:00:00.000
00:05:38.296                   : en:00:05:38.296
00:09:04.919                   : en:00:09:04.919
00:15:26.759                   : en:00:15:26.759
00:18:42.705                   : en:00:18:42.705
00:21:43.636                   : en:00:21:43.636
00:28:37.382                   : en:00:28:37.382
00:34:42.622                   : en:00:34:42.622
00:41:17.058                   : en:00:41:17.058
00:47:55.623                   : en:00:47:55.623
00:51:14.530                   : en:00:51:14.530
00:56:58.457                   : en:00:56:58.457
01:01:34.566                   : en:01:01:34.566
01:05:22.168                   : en:01:05:22.168
01:09:10.938                   : en:01:09:10.938
01:16:13.194                   : en:01:16:13.194
01:20:17.104                   : en:01:20:17.104
01:25:41.928                   : en:01:25:41.928
01:31:45.250                   : en:01:31:45.250
01:33:57.632                   : en:01:33:57.632



Скриншоты:
[+] Всего файлов в раздаче - 3:
Upgrade.2018-RUS-by_Dalemake.srt110.21 kB
Upgrade.2018-RUS-new-1.srt110.21 kB
Upgrade.2018.BDRip.1080p.Sub.mkv6.87 GB

Текущая раздача:
ДатаКомментарии    РазмерПиры
2018-08-18 U Апгрейд / Upgrade (2018) BDRip 1080p | Sub 6.87 GB ↑ 108 ↓ 138

Показать еще раздачи по запросу апгрейд:
2018-09-02 U Апгрейд / Upgrade (2018) BDRip 720p | P, L, A 4.90 GB ↑ 53 ↓ 38
2018-08-31 U Апгрейд / Upgrade (2018) HDRip от Scarabey | HDRezka Studio 744.78 MB ↑ 78 ↓ 12
2018-08-31 U Апгрейд / Upgrade (2018) BDRip 1080p от HELLYWOOD | A 6.14 GB ↑ 38 ↓ 21
2018-08-30 U Апгрейд / Upgrade (2018) BDRip-HEVC 1080p | 60 fps | HDRezka Studio 4.47 GB ↑ 102 ↓ 26
2018-08-26 U Апгрейд / Upgrade (2018) BDRip 720p от Scarabey | HDRezka Studio 4.73 GB ↑ 96 ↓ 53
2018-08-25 U Апгрейд / Upgrade (2018) HDRip | КПК | HDrezka Studio 377.29 MB ↑ 26 ↓ 9
2018-08-24 U Апгрейд / Upgrade (2018) BDRip-AVC от ExKinoRay | HDRezka Studio 1.69 GB ↑ 105 ↓ 37

Отзывы
Зарегистрируйтесь чтобы добавить комментарий.
Обратная связь
Copyleft ©