↑↓Torrent.by
Поиск
Логин: Регистрация
Пароль: Восстановить пароль
Загрузка...

Гоголь. Вий (2018) BDRip 1080p от ExKinoRay | Лицензия

Скачать gogol-viy-2018-bdrip-1080p-ot-exkinoray-licenziya.torrent
U Магнитная ссылка Размер: 6.53 GB Раздают: 1623 Качают: 30 Добавлен: 2018-08-18 16:13:35
Гоголь. Вий (2018) BDRip 1080p от ExKinoRay | Лицензия

Название: Гоголь. Вий
Год выхода: 2018
Жанр: Детектив, приключения, драма
Режиссер: Егор Баранов
В ролях: Александр Петров (II), Олег Меньшиков, Евгений Стычкин, Таисия Вилкова, Артём Ткаченко, Екатерина Бурлакова, Сергей Бадюк, Ян Цапник, Алексей Вертков, Марта Тимофеева

О фильме: Писарь из Санкт-Петербурга Николай Гоголь бросает вызов загадочному тёмному Всаднику, который жестоко расправляется с девушками в окрестностях села Диканька. Собрав команду из местного полицейского, пьяницы-доктора, суеверного кузнеца и странствующего философа-экзорциста, Гоголь пытается заманить злодея в ловушку, но на его пути встает самое жуткое порождение нечистой силы — Вий, один взгляд которого способен высосать душу смертного. Неожиданно для себя Гоголь выясняет, что с потусторонними силами его связывают не только таинственные видения.

Страна: Россия
Студия: Продюсерская компания «Среда»
Продолжительность: 01:39:13

Качество: BDRip 1080p
Видео: MPEG-4 AVC, 1920x804, 8789 Kbit/s, 24.000 fps
Звук:
Аудио: 48 kHz, AC3, 5.1, 640 Kbps | Лицензия | RUS |
Субтитры: Русские (полные), английские

Релиз:

Автор релиза:


[+] MI
General
Unique ID                   : 253543096838017381159168011556251190458 (0xBEBE9FCE2596D4DFAB02E6B534BF44BA)
Complete name               : D:Video111Gogol.Viy.2018.BDRip.1080p.ExKinoRay.mkv
Format                      : Matroska
Format version              : Version 4 / Version 2
File size                   : 6.53 GiB
Duration                    : 1 h 39 min
Overall bit rate            : 9 427 kb/s
Movie name                  : Gogol Viy (2018) from ExKinoRay
Encoded date                : UTC 2018-08-18 10:15:46
Writing application         : mkvmerge v7.3.0 ('Nouages') 64bit built on Oct 22 2014 18:53:34
Writing library             : libebml v1.3.0 + libmatroska v1.4.1

Video
ID                          : 1
Format                      : AVC
Format/Info                 : Advanced Video Codec
Format profile              : High@L4.1
Format settings             : CABAC / 5 Ref Frames
Format settings, CABAC      : Yes
Format settings, ReFrames   : 5 frames
Codec ID                    : V_MPEG4/ISO/AVC
Duration                    : 1 h 39 min
Bit rate                    : 8 789 kb/s
Width                       : 1 920 pixels
Height                      : 804 pixels
Display aspect ratio        : 2.40:1
Frame rate mode             : Constant
Frame rate                  : 24.000 FPS
Color space                 : YUV
Chroma subsampling          : 4:2:0
Bit depth                   : 8 bits
Scan type                   : Progressive
Bits/(Pixel*Frame)          : 0.237
Stream size                 : 6.09 GiB (93%)
Writing library             : x264 core 148 r2705 3f5ed56
Encoding settings           : cabac=1 / ref=5 / deblock=1:-2:-2 / analyse=0x3:0x133 / me=umh / subme=11 / psy=1 / psy_rd=1.20:0.04 / mixed_ref=1 / me_range=48 / chroma_me=1 / trellis=2 / 8x8dct=1 / cqm=0 / deadzone=21,11 / fast_pskip=0 / chroma_qp_offset=-3 / threads=12 / lookahead_threads=2 / sliced_threads=0 / nr=0 / decimate=0 / interlaced=0 / bluray_compat=0 / constrained_intra=0 / bframes=8 / b_pyramid=2 / b_adapt=2 / b_bias=0 / direct=3 / weightb=1 / open_gop=0 / weightp=2 / keyint=240 / keyint_min=24 / scenecut=40 / intra_refresh=0 / rc_lookahead=50 / rc=2pass / mbtree=0 / bitrate=8789 / ratetol=1.0 / qcomp=0.60 / qpmin=0 / qpmax=51 / qpstep=4 / cplxblur=20.0 / qblur=0.5 / vbv_maxrate=50000 / vbv_bufsize=62500 / nal_hrd=none / filler=0 / ip_ratio=1.40 / pb_ratio=1.30 / aq=3:0.80
Language                    : Russian
Default                     : Yes
Forced                      : No

Audio
ID                          : 2
Format                      : AC-3
Format/Info                 : Audio Coding 3
Commercial name             : Dolby Digital
Codec ID                    : A_AC3
Duration                    : 1 h 39 min
Bit rate mode               : Constant
Bit rate                    : 640 kb/s
Channel(s)                  : 6 channels
Channel positions           : Front: L C R, Side: L R, LFE
Sampling rate               : 48.0 kHz
Frame rate                  : 31.250 FPS (1536 SPF)
Bit depth                   : 16 bits
Compression mode            : Lossy
Stream size                 : 454 MiB (7%)
Title                       : License
Language                    : Russian
Service kind                : Complete Main
Default                     : Yes
Forced                      : Yes

Text #1
ID                          : 3
Format                      : UTF-8
Codec ID                    : S_TEXT/UTF8
Codec ID/Info               : UTF-8 Plain Text
Duration                    : 1 h 35 min
Bit rate                    : 70 b/s
Count of elements           : 951
Stream size                 : 49.5 KiB (0%)
Title                       : Full
Language                    : Russian
Default                     : No
Forced                      : No

Text #2
ID                          : 4
Format                      : UTF-8
Codec ID                    : S_TEXT/UTF8
Codec ID/Info               : UTF-8 Plain Text
Duration                    : 1 h 35 min
Bit rate                    : 40 b/s
Count of elements           : 947
Stream size                 : 28.1 KiB (0%)
Title                       : Full
Language                    : English
Default                     : No
Forced                      : No

Menu
00:00:00.000                : en:00:00:00.000
00:00:30.042                : en:00:00:30.042
00:12:28.250                : en:00:12:28.250
00:25:02.417                : en:00:25:02.417
00:35:45.250                : en:00:35:45.250
00:49:36.458                : en:00:49:36.458
01:00:24.042                : en:01:00:24.042
01:14:40.167                : en:01:14:40.167
01:27:46.000                : en:01:27:46.000



Скриншоты:
[+] Всего файлов в раздаче - 1:
Gogol.Viy.2018.BDRip.1080p.ExKinoRay.mkv6.53 GB

Текущая раздача:
ДатаКомментарии    РазмерПиры
2018-08-18 U Гоголь. Вий (2018) BDRip 1080p от ExKinoRay | Лицензия 6.53 GB ↑ 1623 ↓ 30

Похожие раздачи по запросу - гоголь:
2018-08-19 U Гоголь. Вий (2018) BDRip-AVC | Лицензия 2К744.32 MB ↑ 47 ↓ 10
2018-08-17 U Гоголь. Вий (2018) BDRip-AVC от ExKinoRay | Лицензия 1.50 GB ↑ 41 ↓ 21
2018-08-17 U Гоголь. Вий (2018) BDRip от MegaPeer | Лицензия 1.46 GB ↑ 39 ↓ 14
2018-08-09 U Гоголь. Вий (2018) BDRip от ExKinoRay | Лицензия 1.46 GB ↑ 276 ↓ 45
2013-11-11 U Вечера на хуторе близ Диканьки - Н. В. Гоголь (2008) MP3 15К503.36 MB ↑ 2634 ↓ 37

Отзывы
Зарегистрируйтесь чтобы добавить комментарий.
Обратная связь
Copyleft ©