↑↓Torrent.by
Поиск
Логин: Регистрация
Пароль: Восстановить пароль
Загрузка...

Клуб миллиардеров / Billionaire Boys Club (2018) WEB-DLRip-AVC от OlLanDGroup | D, P | iTunes

Скачать klub-milliarderov-billionaire-boys-club-2018-web-dlrip-avc-ot-ollandgroup-d-p-itunes.torrent
U Магнитная ссылка Размер: 1.75 GB Раздают: 125 Качают: 70 Добавлен: 2018-08-20 10:22:58
Клуб миллиардеров / Billionaire Boys Club (2018) WEB-DLRip-AVC от OlLanDGroup | D, P | iTunes

Клуб миллиардеров / Billionaire Boys Club
«Скажи им правду, если хочешь обмануть»

Год выпуска: 2018
Страна: США
Производство: Armory Films, Oriah Entertainment, Tibet Born Pictures Limited, Vantage Entertainment
Жанр:  Триллер, драма, биография

Режиссёр: Джеймс Кокс
В ролях: Тэрон Эджертон, Эмма Робертс, Сьюки Уотерхаус, Кевин Спейси, Кэри Элвис, Билли Лурд, Энсел Элгорт, Джереми Ирвин, Боким Вудбайн, Розанна Аркетт

Перевод: Дублированный | iTunes, Профессиональный (многоголосый, закадровый) | HDRezka Studio
Субтитры: Русские (полные), Английские (SDH)
Реклама: Отсутствует

Описание: Лос-Анджелес начала 1980-х. Компания молодых людей решает провернуть аферу, благоприятный исход которой сулит огромные деньги. Схема обогащения оказывается жизнеспособной и вместе с тем — смертельной.

Качество: WEB-DLRip-AVC | AMZN Version | Billionaire Boys Club 2018 1080p AMZN WEB-DL DDP5 1 H 264-NTG
Продолжительность: 01:48:19

Формат: MKV
Видео кодек: MPEG-4 AVC
Аудио кодек: AC3
Видео: 1024x426 (2.40:1), 23,976 fps, x264 ~1 352 kbps avg, 0.129 bit/pixel
Аудио #1: 48 kHz, AC3 Dolby Digital, 3/2 (L,C,R,l,r) + LFE ch, ~384.00 kbps avg | RUS (iTunes)
Аудио #2: 48 kHz, AC3 Dolby Digital, 2 (L,R) ch, ~192.00 kbps avg | RUS (HDRezka Studio)
Аудио #3: 48 kHz, AC3 Dolby Digital Plus, 3/2 (L,C,R,l,r) + LFE ch, ~384.00 kbps avg | ENG

Дата премьеры (мир): 25 мая 2018

Релиз: Rip by:


[+] MediaInfo

Общее
Уникальный идентификатор                 : 156418079759400585777026763270030810774 (0x75AD06BFDEF550F5FB751CBB555ADE96)
Полное имя                               : F:OlLanDGroupBillionaire.Boys.Club.2018.WEB-DLRip(AVC).OlLanDGroup.mkv
Формат                                   : Matroska
Версия формата                           : Version 4 / Version 2
Размер файла                             : 1,75 Гбайт
Продолжительность                        : 1 ч. 48 м.
Общий поток                              : 2314 Кбит/сек
Название фильма                          : Billionaire.Boys.Club.2018   #TorpedoUK#
Дата кодирования                         : UTC 2018-08-20 04:28:42
Программа кодирования                    : mkvmerge v25.0.0 ('Prog Noir') 64-bit
Библиотека кодирования                   : libebml v1.3.6 + libmatroska v1.4.9

Видео
Идентификатор                            : 1
Формат                                   : AVC
Формат/Информация                        : Advanced Video Codec
Профиль формата                          : High@L4.1
Параметр CABAC формата                   : Да
Параметр ReFrames формата                : 10 кадров
Идентификатор кодека                     : V_MPEG4/ISO/AVC
Продолжительность                        : 1 ч. 48 м.
Битрейт                                  : 1352 Кбит/сек
Ширина                                   : 1024 пикселя
Высота                                   : 426 пикселей
Соотношение сторон                       : 2,40:1
Режим частоты кадров                     : Постоянный
Частота кадров                           : 23,976 (24000/1001) кадра/сек
Цветовое пространство                    : YUV
Субдискретизация насыщенности            : 4:2:0
Битовая глубина                          : 8 бит
Тип развёртки                            : Прогрессивная
Бит/(Пиксели*Кадры)                      : 0.129
Размер потока                            : 1,02 Гбайт (58%)
Библиотека кодирования                   : x264 core 146 r2538 121396c
Настройки программы                      : cabac=1 / ref=10 / deblock=1:-3:-3 / analyse=0x3:0x113 / me=umh / subme=11 / psy=1 / psy_rd=0.97:0.07 / mixed_ref=1 / me_range=48 / chroma_me=1 / trellis=2 / 8x8dct=1 / cqm=0 / deadzone=21,11 / fast_pskip=1 / chroma_qp_offset=-3 / threads=6 / lookahead_threads=1 / sliced_threads=0 / nr=0 / decimate=1 / interlaced=0 / bluray_compat=0 / constrained_intra=0 / bframes=10 / b_pyramid=2 / b_adapt=2 / b_bias=0 / direct=3 / weightb=1 / open_gop=0 / weightp=2 / keyint=240 / keyint_min=23 / scenecut=40 / intra_refresh=0 / rc_lookahead=40 / rc=2pass / mbtree=1 / bitrate=1352 / ratetol=1.0 / qcomp=0.60 / qpmin=0 / qpmax=69 / qpstep=4 / cplxblur=20.0 / qblur=0.5 / vbv_maxrate=50000 / vbv_bufsize=62500 / nal_hrd=none / filler=0 / ip_ratio=1.40 / aq=1:1.00
Default                                  : Да
Forced                                   : Нет

Аудио #1
Идентификатор                            : 2
Формат                                   : AC-3
Формат/Информация                        : Audio Coding 3
Расширение режима                        : CM (complete main)
Параметр Endianness формата              : Big
Идентификатор кодека                     : A_AC3
Продолжительность                        : 1 ч. 48 м.
Вид битрейта                             : Постоянный
Битрейт                                  : 384 Кбит/сек
Каналы                                   : 6 каналов
Расположение каналов                     : Front: L C R, Side: L R, LFE
Частота                                  : 48,0 КГц
Частота кадров                           : 31,250 кадров/сек (1536 spf)
Битовая глубина                          : 16 бит
Метод сжатия                             : С потерями
Размер потока                            : 297 Мбайт (17%)
Заголовок                                : [DUB] DD 5.1 @ 384 kbps (iTunes)
Язык                                     : Russian
Default                                  : Да
Forced                                   : Нет

Аудио #2
Идентификатор                            : 3
Формат                                   : AC-3
Формат/Информация                        : Audio Coding 3
Расширение режима                        : CM (complete main)
Параметр Endianness формата              : Big
Идентификатор кодека                     : A_AC3
Продолжительность                        : 1 ч. 48 м.
Вид битрейта                             : Постоянный
Битрейт                                  : 192 Кбит/сек
Каналы                                   : 2 канала
Расположение каналов                     : Front: L R
Частота                                  : 48,0 КГц
Частота кадров                           : 31,250 кадров/сек (1536 spf)
Битовая глубина                          : 16 бит
Метод сжатия                             : С потерями
Размер потока                            : 149 Мбайт (8%)
Заголовок                                : MVO [HDRezka Studio]
Язык                                     : Russian
Default                                  : Нет
Forced                                   : Нет

Аудио #3
Идентификатор                            : 4
Формат                                   : AC-3
Формат/Информация                        : Audio Coding 3
Расширение режима                        : CM (complete main)
Параметр Endianness формата              : Big
Идентификатор кодека                     : A_AC3
Продолжительность                        : 1 ч. 48 м.
Вид битрейта                             : Постоянный
Битрейт                                  : 384 Кбит/сек
Каналы                                   : 6 каналов
Расположение каналов                     : Front: L C R, Side: L R, LFE
Частота                                  : 48,0 КГц
Частота кадров                           : 31,250 кадров/сек (1536 spf)
Битовая глубина                          : 16 бит
Метод сжатия                             : С потерями
Размер потока                            : 298 Мбайт (17%)
Заголовок                                : Original
Язык                                     : English
Default                                  : Нет
Forced                                   : Нет

Текст #1
Идентификатор                            : 5
Формат                                   : UTF-8
Идентификатор кодека                     : S_TEXT/UTF8
Идентификатор кодека/Информация          : UTF-8 Plain Text
Продолжительность                        : 1 ч. 36 м.
Битрейт                                  : 131 бит/сек
Count of elements                        : 1673
Размер потока                            : 93,2 Кбайт (0%)
Заголовок                                : Full
Язык                                     : Russian
Default                                  : Нет
Forced                                   : Нет

Текст #2
Идентификатор                            : 6
Формат                                   : UTF-8
Идентификатор кодека                     : S_TEXT/UTF8
Идентификатор кодека/Информация          : UTF-8 Plain Text
Продолжительность                        : 1 ч. 35 м.
Битрейт                                  : 80 бит/сек
Count of elements                        : 1732
Размер потока                            : 56,6 Кбайт (0%)
Заголовок                                : SDH
Язык                                     : English
Default                                  : Нет
Forced                                   : Нет

Меню
00:00:00.000                             : en:1
00:11:41.000                             : en:2
00:19:00.000                             : en:3
00:31:09.000                             : en:4
00:40:15.000                             : en:5
00:51:18.000                             : en:6
01:01:57.000                             : en:7
01:12:32.000                             : en:8
01:21:45.000                             : en:9
01:30:47.000                             : en:10
01:37:09.000                             : en:11



Скриншоты:
[+] Всего файлов в раздаче - 1:
Billionaire.Boys.Club.2018.WEB-DLRip(AVC).OlLanDGroup.mkv1.75 GB

Текущая раздача:
ДатаКомментарии    РазмерПиры
2018-08-20 U Клуб миллиардеров / Billionaire Boys Club (2018) WEB-DLRip-AVC от OlLanDGroup | D, P | iTunes 1.75 GB ↑ 125 ↓ 70

Показать еще раздачи по запросу клуб:
2018-09-06 U Клуб миллиардеров / Billionaire Boys Club (2018) BDRip 1080p | D, Р 8.74 GB ↑ 31 ↓ 15
2018-08-29 U Клуб миллиардеров / Billionaire Boys Club (2018) BDRip от MegaPeer | iTunes 1.41 GB ↑ 73 ↓ 38
2018-08-29 U Клуб миллиардеров / Billionaire Boys Club (2018) BDRip от MegaPeer | iTunes 745.76 MB ↑ 51 ↓ 2
2018-08-25 U Клуб миллиардеров / Billionaire Boys Club (2018) WEB-DLRip от Scarabey | iTunes 1.45 GB ↑ 61 ↓ 21
2018-08-23 U Клуб миллиардеров / Billionaire Boys Club (2018) WEB-DL 720p | D, P | iTunes 4.46 GB ↑ 74 ↓ 23
2018-08-21 U Книжный клуб / Book Club (2018) BDRip 1080p от ExKinoRay | iTunes 10.81 GB ↑ 28 ↓ 19
2018-08-21 U Книжный клуб / Book Club (2018) BDRip от MegaPeer | iTunes 1.41 GB ↑ 33 ↓ 11

Отзывы
Зарегистрируйтесь чтобы добавить комментарий.
Обратная связь
Copyleft ©