↑↓Torrent.by
Поиск
Логин: Регистрация
Пароль: Восстановить пароль
Загрузка...

Хмель: Дилогия (1991) DVDRip-AVC от KORSAR

Скачать hmel-dilogiya-1991-dvdrip-avc-ot-korsar.torrent
U Магнитная ссылка Размер: 4.09 GB Раздают: 144 Качают: 68 Добавлен: 2018-08-20 15:11:27
Хмель: Дилогия (1991) DVDRip-AVC от KORSAR

Название: Хмель: Дилогия
Год выхода: 1991
Жанр: Драма
Режиссер: Виктор Трегубович
В ролях: Федор Одиноков, Марина Трегубович, Александр Блок, Андрей Пономарев, Виктор Трегубович, Алексей Булдаков, Александр Завьялов, Юрий Дубровин, Александр Суснин, Михаил Силантьев, Борис Аракелов, Николай Сытин, Борис Павлов-Сильванский, Валентин Клементьев, Всеволод Кузнецов, Сергей Выборнов, Кира Данилова, Юрий Захаревич, Юрий Кузнецов, Владимир Еремин, Виктор Бычков, Геннадий Богачев

О фильме: По мотивам одноименного романа Алексея Черкасова. Фильм рассказывает о жизни староверческой общины в начале прошлого века. На экране разыгрывается драма необычной жизни, история любви и страстей человеческих.
Фильм первый - Крепость
Фильм второй - Исход


Страна: СССР
Студия: Ладога
Продолжительность: 01:35:14 | 02:15:53

Файл
Кодек: х264
Качество: DVDRip-AVC
Фильм 1: MPEG-4 AVC, 696x480@742x480, 25 fps, 2300 Кбит/с
Фильм 2: MPEG-4 AVC, 696x484@742x484, 25 fps, 2281 Кбит/с
Аудио: AC3, 2 ch, 192 Кбит/с

Релиз:


[+] Инфо файл

Общее
Уникальный идентификатор         : 199027125454171403241486023818852513607 (0x95BB3AE596C9C9A785F2FB51D9193747)
Полное имя                       : Хмель_1991-DVDRip-AVC_KORSARХмель-1.mkv
Формат                           : Matroska
Размер файла                     : 1,69 Гбайт
Продолжительность                : 1 ч. 35 м.
Общий поток                      : 2543 Кбит/сек
Дата кодирования                 : UTC 2018-03-21 09:16:16
Программа кодирования            : mkvmerge v5.8.0 ('No Sleep / Pillow') built on Sep  2 2012 15:37:04
Библиотека кодирования           : libebml v1.2.3 + libmatroska v1.3.0

Видео
Идентификатор                    : 1
Формат                           : AVC
Формат/Информация                : Advanced Video Codec
Профиль формата                  : High@L4.1
Параметр CABAC формата           : Да
Параметр ReFrames формата        : 15 кадры
Идентификатор кодека             : V_MPEG4/ISO/AVC
Продолжительность                : 1 ч. 35 м.
Битрейт                          : 2300 Кбит/сек
Ширина                           : 696 пикс.
Высота                           : 480 пикс.
Соотношение сторон               : 3:2
Соотношение сторон в оригинале   : 3:2
Частота кадров                   : 25,000 кадр/сек
Цветовое пространство            : YUV
Подвыборка цветности             : 4:2:0
Битовая глубина                  : 8 бит
Тип развёртки                    : Прогрессивная
Бит/(Пиксели*Кадры)              : 0.275
Размер потока                    : 1,53 Гбайт (90%)
Библиотека кодирования           : x264 core 148 r2744kMod b97ae06
Настройки программы              : cabac=1 / ref=15 / deblock=1:-2:-1 / analyse=0x3:0x133 / me=umh / subme=10 / psy=1 / fade_compensate=0.00 / psy_rd=1.05:0.10 / mixed_ref=1 / me_range=32 / chroma_me=1 / trellis=2 / 8x8dct=1 / cqm=0 / deadzone=21,11 / fast_pskip=1 / chroma_qp_offset=-3 / threads=12 / lookahead_threads=2 / sliced_threads=0 / nr=0 / decimate=1 / interlaced=0 / bluray_compat=0 / constrained_intra=0 / bframes=9 / b_pyramid=2 / b_adapt=2 / b_bias=0 / direct=1 / weightb=1 / open_gop=0 / weightp=2 / keyint=250 / keyint_min=25 / scenecut=40 / intra_refresh=0 / rc=crf / mbtree=0 / crf=17.5000 / qcomp=0.63 / qpmin=0 / qpmax=39 / qpstep=4 / ip_ratio=1.40 / pb_ratio=1.30 / aq=1:1.00
Язык                             : English
Основные цвета                   : BT.470-6 System B, BT.470-6 System G, BT.601-6 625, BT.1358 625, BT.1700 625 PAL, BT.1700 625 SECAM
Характеристики трансфера         : BT.470-6 System B, BT.470-6 System G
Коэффициенты матрицы             : BT.470-6 System B, BT.470-6 System G, BT.601-6 625, BT.1358 625, BT.1700 625 PAL, BT.1700 625 SECAM, IEC 61966-2-4 601

Аудио
Идентификатор                    : 2
Формат                           : AC-3
Формат/Информация                : Audio Coding 3
Расширение режима                : CM (complete main)
Идентификатор кодека             : A_AC3
Продолжительность                : 1 ч. 35 м.
Вид битрейта                     : Постоянный
Битрейт                          : 192 Кбит/сек
Канал(ы)                         : 2 канала(ов)
Расположение каналов             : Front: L R
Частота                          : 48,0 КГц
Битовая глубина                  : 16 бит
Метод сжатия                     : С потерями
Размер потока                    : 131 Мбайт (8%)
Язык                             : Russian

Общее
Уникальный идентификатор         : 234950157412925190247137288039567109025 (0xB0C1C11DBCBDBC1EB58CFBF9B78AABA1)
Полное имя                       : Хмель_1991-DVDRip-AVC_KORSARХмель-2.mkv
Формат                           : Matroska
Размер файла                     : 2,39 Гбайт
Продолжительность                : 2 ч. 15 м.
Общий поток                      : 2523 Кбит/сек
Дата кодирования                 : UTC 2018-03-21 09:17:35
Программа кодирования            : mkvmerge v5.8.0 ('No Sleep / Pillow') built on Sep  2 2012 15:37:04
Библиотека кодирования           : libebml v1.2.3 + libmatroska v1.3.0

Видео
Идентификатор                    : 1
Формат                           : AVC
Формат/Информация                : Advanced Video Codec
Профиль формата                  : High@L4.1
Параметр CABAC формата           : Да
Параметр ReFrames формата        : 15 кадры
Идентификатор кодека             : V_MPEG4/ISO/AVC
Продолжительность                : 2 ч. 15 м.
Битрейт                          : 2281 Кбит/сек
Ширина                           : 696 пикс.
Высота                           : 484 пикс.
Соотношение сторон               : 3:2
Соотношение сторон в оригинале   : 3:2
Частота кадров                   : 25,000 кадр/сек
Цветовое пространство            : YUV
Подвыборка цветности             : 4:2:0
Битовая глубина                  : 8 бит
Тип развёртки                    : Прогрессивная
Бит/(Пиксели*Кадры)              : 0.271
Размер потока                    : 2,16 Гбайт (90%)
Библиотека кодирования           : x264 core 148 r2744kMod b97ae06
Настройки программы              : cabac=1 / ref=15 / deblock=1:-2:-1 / analyse=0x3:0x133 / me=umh / subme=10 / psy=1 / fade_compensate=0.00 / psy_rd=1.05:0.10 / mixed_ref=1 / me_range=32 / chroma_me=1 / trellis=2 / 8x8dct=1 / cqm=0 / deadzone=21,11 / fast_pskip=1 / chroma_qp_offset=-3 / threads=12 / lookahead_threads=2 / sliced_threads=0 / nr=0 / decimate=1 / interlaced=0 / bluray_compat=0 / constrained_intra=0 / bframes=9 / b_pyramid=2 / b_adapt=2 / b_bias=0 / direct=1 / weightb=1 / open_gop=0 / weightp=2 / keyint=250 / keyint_min=25 / scenecut=40 / intra_refresh=0 / rc=crf / mbtree=0 / crf=17.5000 / qcomp=0.63 / qpmin=0 / qpmax=39 / qpstep=4 / ip_ratio=1.40 / pb_ratio=1.30 / aq=1:1.00
Язык                             : English
Основные цвета                   : BT.470-6 System B, BT.470-6 System G, BT.601-6 625, BT.1358 625, BT.1700 625 PAL, BT.1700 625 SECAM
Характеристики трансфера         : BT.470-6 System B, BT.470-6 System G
Коэффициенты матрицы             : BT.470-6 System B, BT.470-6 System G, BT.601-6 625, BT.1358 625, BT.1700 625 PAL, BT.1700 625 SECAM, IEC 61966-2-4 601

Аудио
Идентификатор                    : 2
Формат                           : AC-3
Формат/Информация                : Audio Coding 3
Расширение режима                : CM (complete main)
Идентификатор кодека             : A_AC3
Продолжительность                : 2 ч. 15 м.
Вид битрейта                     : Постоянный
Битрейт                          : 192 Кбит/сек
Канал(ы)                         : 2 канала(ов)
Расположение каналов             : Front: L R
Частота                          : 48,0 КГц
Битовая глубина                  : 16 бит
Метод сжатия                     : С потерями
Размер потока                    : 187 Мбайт (8%)
Язык                             : Russian



Скриншоты:
[+] Всего файлов в раздаче - 2:
Хмель-2.mkv2.39 GB
Хмель-1.mkv1.69 GB

Текущая раздача:
ДатаКомментарии    РазмерПиры
2018-08-20 U Хмель: Дилогия (1991) DVDRip-AVC от KORSAR 4.09 GB ↑ 144 ↓ 68

Похожие раздачи по запросу - хмель:
2018-08-23 U Алексей Черкасов - Сказания о людях тайги 1. Хмель (2013) MP3 2.01 GB ↑ 55 ↓ 7
2016-02-15 U Павел Корнев, Андрей Круз - Приграничье 8. Хмель и Клондайк (2016) MP3 862.11 MB ↑ 82 ↓ 17

Отзывы
Зарегистрируйтесь чтобы добавить комментарий.
Обратная связь
Copyleft ©