↑↓Torrent.by
Поиск
Логин: Регистрация
Пароль: Восстановить пароль
Загрузка...

Книжный клуб / Book Club (2018) BDRip 720p от ExKinoRay | iTunes

Скачать knizhnyy-klub-book-club-2018-bdrip-720p-ot-exkinoray-itunes.torrent
U Магнитная ссылка Размер: 4.25 GB Раздают: 35 Качают: 16 Добавлен: 2018-08-21 05:36:12
Книжный клуб / Book Club (2018) BDRip 720p от ExKinoRay | iTunes

Название: Книжный клуб
Оригинальное название: Book Club
Год выхода: 2017
Жанр: Комедия, мелодрама
Режиссер: Билл Холдермэн
В ролях: Дайан Китон, Джейн Фонда, Кэндис Берген, Мэри Стинберген, Энди Гарсиа, Крэйг Т. Нельсон, Дон Джонсон, Алисия Сильверстоун, Ричард Дрейфусс, Эд Бегли мл.

О фильме: Однажды в руки утонченных интеллектуалок попадает эротический бестселлер «Пятьдесят оттенков серого». С этого момента жизнь калифорнийских леди уже никогда не будет прежней.

Страна: США
Студия: Apartment Story, June Pictures
Продолжительность: 01:43:45
Перевод: Дублированный | iTunes

Качество: BDRip 720p
Видео: MPEG-4 AVC, 1280x536, 4843 Kbit/s, 23.976 fps
Звук:
Аудио #01: 48 kHz, AC3, 5.1, 384 Kbps | iTunes | RUS |
Аудио #02: 48 kHz, AC3, 5.1, 640 Kbps | Оригинал |  ENG |
Субтитры: Английские

Релиз:

Автор релиза:


[+] MI
General
Unique ID                   : 170957910718899590628525352569866206176 (0x809D4BC3453D2DE09A09191F45C6BBE0)
Complete name               : D:Video111Book.Club.2018.BDRip.720p.ExKinoRay.mkv
Format                      : Matroska
Format version              : Version 4 / Version 2
File size                   : 4.25 GiB
Duration                    : 1 h 43 min
Overall bit rate            : 5 869 kb/s
Movie name                  : Book Club 2018 from ExKinoRay
Encoded date                : UTC 2018-08-20 15:57:26
Writing application         : mkvmerge v7.3.0 ('Nouages') 64bit built on Oct 22 2014 18:53:34
Writing library             : libebml v1.3.0 + libmatroska v1.4.1

Video
ID                          : 1
Format                      : AVC
Format/Info                 : Advanced Video Codec
Format profile              : High@L4.1
Format settings             : CABAC / 12 Ref Frames
Format settings, CABAC      : Yes
Format settings, ReFrames   : 12 frames
Codec ID                    : V_MPEG4/ISO/AVC
Duration                    : 1 h 43 min
Bit rate                    : 4 843 kb/s
Width                       : 1 280 pixels
Height                      : 536 pixels
Display aspect ratio        : 2.40:1
Frame rate mode             : Constant
Frame rate                  : 23.976 (24000/1001) FPS
Color space                 : YUV
Chroma subsampling          : 4:2:0
Bit depth                   : 8 bits
Scan type                   : Progressive
Bits/(Pixel*Frame)          : 0.294
Stream size                 : 3.51 GiB (83%)
Writing library             : x264 core 142 r2431+42 c69a006 tMod [8-bit@4:2:0 X86_64]
Encoding settings           : cabac=1 / ref=12 / deblock=1:-3:-3 / analyse=0x3:0x113 / me=umh / subme=10 / psy=1 / fade_compensate=0.00 / psy_rd=1.00:0.05 / mixed_ref=1 / me_range=32 / chroma_me=1 / trellis=2 / 8x8dct=1 / cqm=0 / deadzone=21,11 / fast_pskip=0 / chroma_qp_offset=-2 / threads=48 / lookahead_threads=4 / sliced_threads=0 / nr=0 / decimate=1 / interlaced=0 / bluray_compat=0 / constrained_intra=0 / fgo=0 / bframes=8 / b_pyramid=2 / b_adapt=2 / b_bias=0 / direct=3 / weightb=1 / open_gop=0 / weightp=2 / keyint=250 / keyint_min=23 / scenecut=40 / intra_refresh=0 / rc=crf / mbtree=0 / crf=15.3000 / qcomp=0.60 / qpmin=0:0:0 / qpmax=69:69:69 / qpstep=4 / ip_ratio=1.40 / pb_ratio=1.30 / aq=3:0.80 / aq-sensitivity=10.00 / aq-factor=1.00:1.00:1.00 / aq2=0 / aq3=0
Language                    : English
Default                     : Yes
Forced                      : No
Color range                 : Limited
Matrix coefficients         : BT.709

Audio #1
ID                          : 2
Format                      : AC-3
Format/Info                 : Audio Coding 3
Commercial name             : Dolby Digital
Codec ID                    : A_AC3
Duration                    : 1 h 43 min
Bit rate mode               : Constant
Bit rate                    : 384 kb/s
Channel(s)                  : 6 channels
Channel positions           : Front: L C R, Side: L R, LFE
Sampling rate               : 48.0 kHz
Frame rate                  : 31.250 FPS (1536 SPF)
Bit depth                   : 16 bits
Compression mode            : Lossy
Stream size                 : 285 MiB (7%)
Title                       : iTunes
Language                    : Russian
Service kind                : Complete Main
Default                     : Yes
Forced                      : Yes

Audio #2
ID                          : 3
Format                      : AC-3
Format/Info                 : Audio Coding 3
Commercial name             : Dolby Digital
Codec ID                    : A_AC3
Duration                    : 1 h 43 min
Bit rate mode               : Constant
Bit rate                    : 640 kb/s
Channel(s)                  : 6 channels
Channel positions           : Front: L C R, Side: L R, LFE
Sampling rate               : 48.0 kHz
Frame rate                  : 31.250 FPS (1536 SPF)
Bit depth                   : 16 bits
Compression mode            : Lossy
Stream size                 : 475 MiB (11%)
Title                       : Original
Language                    : English
Service kind                : Complete Main
Default                     : No
Forced                      : No

Text #1
ID                          : 4
Format                      : UTF-8
Codec ID                    : S_TEXT/UTF8
Codec ID/Info               : UTF-8 Plain Text
Duration                    : 1 h 36 min
Bit rate                    : 81 b/s
Count of elements           : 1766
Stream size                 : 57.6 KiB (0%)
Title                       : full
Language                    : English
Default                     : No
Forced                      : No

Text #2
ID                          : 5
Format                      : UTF-8
Codec ID                    : S_TEXT/UTF8
Codec ID/Info               : UTF-8 Plain Text
Duration                    : 1 h 36 min
Bit rate                    : 105 b/s
Count of elements           : 1970
Stream size                 : 74.8 KiB (0%)
Title                       : SDH
Language                    : English
Default                     : No
Forced                      : No

Text #3
ID                          : 6
Format                      : UTF-8
Codec ID                    : S_TEXT/UTF8
Codec ID/Info               : UTF-8 Plain Text
Duration                    : 1 h 36 min
Bit rate                    : 113 b/s
Count of elements           : 1970
Stream size                 : 80.3 KiB (0%)
Title                       : SDH Colored
Language                    : English
Default                     : No
Forced                      : No

Menu
00:00:00.000                : en:00:00:00.000
00:09:32.572                : en:00:09:32.572
00:17:58.494                : en:00:17:58.494
00:28:37.174                : en:00:28:37.174
00:37:45.430                : en:00:37:45.430
00:46:38.629                : en:00:46:38.629
00:53:34.461                : en:00:53:34.461
01:02:36.586                : en:01:02:36.586
01:13:06.757                : en:01:13:06.757
01:21:36.183                : en:01:21:36.183
01:31:12.634                : en:01:31:12.634
01:37:14.662                : en:01:37:14.662



Скриншоты:
[+] Всего файлов в раздаче - 1:
Book.Club.2018.BDRip.720p.ExKinoRay.mkv4.25 GB

Текущая раздача:
ДатаКомментарии    РазмерПиры
2018-08-21 U Книжный клуб / Book Club (2018) BDRip 720p от ExKinoRay | iTunes 4.25 GB ↑ 35 ↓ 16

Показать еще раздачи по запросу книжный:
2018-08-21 U Книжный клуб / Book Club (2018) BDRip 1080p от ExKinoRay | iTunes 10.81 GB ↑ 28 ↓ 19
2018-08-21 U Книжный клуб / Book Club (2018) BDRip от MegaPeer | iTunes 1.41 GB ↑ 37 ↓ 11
2018-08-20 U Книжный клуб / Book Club (2018) BDRip-AVC | iTunes 1К2.17 GB ↑ 64 ↓ 34
2018-08-20 U Книжный клуб / Book Club (2018) BDRip 1080p | iTunes 7.63 GB ↑ 81 ↓ 105
2018-08-20 U Книжный клуб / Book Club (2018) BDRip 720p | iTunes 3.64 GB ↑ 54 ↓ 46
2018-08-20 U Книжный клуб / Book Club (2018) BDRip | iTunes 1.45 GB ↑ 301 ↓ 101
2017-03-15 U Серия книг - Фантастика Книжный Клуб [111 книг] (2010-2017) FB2, RTF, MOBI 662.09 MB ↑ 263 ↓ 17

Отзывы
Зарегистрируйтесь чтобы добавить комментарий.
Обратная связь
Copyleft ©