↑↓Torrent.by
Поиск
Логин: Регистрация
Пароль: Восстановить пароль
Загрузка...

Совершенно серьезно (1961) SATRip-AVC от New-Team

Скачать sovershenno-serezno-1961-satrip-avc-ot-new-team.torrent
U Магнитная ссылка Размер: 744.54 MB Раздают: 135 Качают: 18 Добавлен: 2018-08-21 19:38:23
Совершенно серьезно (1961) SATRip-AVC от New-Team

Страна: СССР
Производство: Мосфильм

Жанр:  комедия
Год выпуска: 1961
Продолжительность: 00:54:10

Перевод: Не требуется
Cубтитры: нет
Оригинальная аудиодорожка: русский

Режиссер: Иван Пырьев

В ролях:
Анатолий Папанов, Сергей Филиппов, Ростислав Плятт, Георгий Георгиу, Борис Новиков, Эмилия Трейвас, Рина Зелёная, Светлана Харитонова, Владимир Кулик, Мария Миронова, Мария Кравчуновская, Александр Белявский, Илья Рутберг, Татьяна Бестаева, Серафим Аникеев, Марина Полбенцева, Ольга Викландт, Павел Винник...
Об актёрах подробней

Описание:
Киноальманах состоит из четырёх новелл: «Как создавался Робинзон», реж. Э. Рязанов; «История с пирожками», реж. Н. Трахтенберг; «Иностранцы», реж. Э. Змойро; «Приятного аппетита», реж. В. Семаков. Поставлены они разными режиссерами под руководством классика режиссуры Ивана Пырьева.



[+] MediaInfo

Общее
Полное имя                               : Sovershenno.serezno.1961.SATRip-AVC_[New-team]_by_AVP_Studio.mkv
Формат                                   : Matroska
Версия формата                           : Version 2
Размер файла                             : 745 Мбайт
Продолжительность                        : 54 м. 10 с.
Общий поток                              : 1922 Кбит/сек
Дата кодирования                         : UTC 2018-08-14 19:31:01
Программа кодирования                    : mkvmerge v6.1.0 ('Old Devil') built on Mar  4 2013 09:10:42
Библиотека кодирования                   : libebml v1.3.0 + libmatroska v1.4.0

Видео
Идентификатор                            : 1
Формат                                   : AVC
Формат/Информация                        : Advanced Video Codec
Профиль формата                          : High@L4.1
Настройки формата                        : CABAC / 10 Ref Frames
Параметр CABAC формата                   : Да
Параметр RefFrames формата               : 10 кадров
Идентификатор кодека                     : V_MPEG4/ISO/AVC
Продолжительность                        : 54 м. 10 с.
Битрейт                                  : 1728 Кбит/сек
Ширина                                   : 704 пикселя
Высота                                   : 570 пикселей
Соотношение сторон                       : 4:3
Режим частоты кадров                     : Постоянный
Частота кадров                           : 25,000 кадров/сек
Цветовое пространство                    : YUV
Субдискретизация насыщенности            : 4:2:0
Битовая глубина                          : 8 бит
Тип развёртки                            : Прогрессивная
Бит/(Пиксели*Кадры)                      : 0.172
Размер потока                            : 655 Мбайт (88%)
Библиотека кодирования                   : x264 core 130 r2273 b3065e6
Настройки программы                      : cabac=1 / ref=10 / deblock=1:-2:-1 / analyse=0x3:0x113 / me=umh / subme=10 / psy=1 / psy_rd=1.00:0.00 / mixed_ref=1 / me_range=32 / chroma_me=1 / trellis=2 / 8x8dct=1 / cqm=0 / deadzone=21,11 / fast_pskip=1 / chroma_qp_offset=-2 / threads=6 / lookahead_threads=1 / sliced_threads=0 / nr=0 / decimate=0 / interlaced=0 / bluray_compat=0 / constrained_intra=0 / bframes=8 / b_pyramid=2 / b_adapt=2 / b_bias=0 / direct=3 / weightb=1 / open_gop=0 / weightp=2 / keyint=250 / keyint_min=25 / scenecut=40 / intra_refresh=0 / rc=2pass / mbtree=0 / bitrate=1728 / ratetol=1.0 / qcomp=0.60 / qpmin=0 / qpmax=69 / qpstep=4 / cplxblur=20.0 / qblur=0.5 / ip_ratio=1.40 / pb_ratio=1.30 / aq=1:1.00
Default                                  : Да
Forced                                   : Нет

Аудио
Идентификатор                            : 2
Формат                                   : AC-3
Формат/Информация                        : Audio Coding 3
Идентификатор кодека                     : A_AC3
Продолжительность                        : 54 м. 10 с.
Вид битрейта                             : Постоянный
Битрейт                                  : 192 Кбит/сек
Каналы                                   : 2 канала
Расположение каналов                     : Front: L R
Частота                                  : 48,0 КГц
Частота кадров                           : 31,250 кадров/сек (1536 SPF)
Битовая глубина                          : 16 бит
Метод сжатия                             : С потерями
Размер потока                            : 74,4 Мбайт (10%)
Default                                  : Да
Forced                                   : Нет



Скриншоты:
[+] Всего файлов в раздаче - 1:
Sovershenno.serezno.1961.SATRip-AVC_[New-team]_by_AVP_Studio.mkv744.54 MB

Текущая раздача:
ДатаКомментарии    РазмерПиры
2018-08-21 U Совершенно серьезно (1961) SATRip-AVC от New-Team 744.54 MB ↑ 135 ↓ 18

Показать еще раздачи по запросу совершенно:
2018-08-02 U Совершенно секретно №08 (Август) (2018) PDF 67.89 MB ↑ 167 ↓ 29
2018-07-02 U Совершенно секретно №07 (Июль) (2018) PDF 21.84 MB ↑ 196 ↓ 6
2018-04-30 U Совершенно секретно №5 (Май) (2018) PDF 20.71 MB ↑ 259 ↓ 12
2018-04-03 U Совершенно секретно №04 (Апрель) (2018) PDF 67.65 MB ↑ 136 ↓ 20
2017-01-04 U Совершенно серьезно (1961) IPTVRip 1К877.35 MB ↑ 256 ↓ 29
2016-07-23 U Совершенно секретно / Mesuvag Harig (2015) HDTVRip | L1 961.42 MB ↑ 218 ↓ 82
2014-04-01 U Discovery: Совершенно секретно. Тайны мировых спецслужб / Secrets Of... [01-06 из 06] (2012) SATRip | P1 3.03 GB ↑ 175 ↓ 50

Отзывы
Зарегистрируйтесь чтобы добавить комментарий.
Обратная связь
Copyleft ©