↑↓Torrent.by
Поиск
Логин: Регистрация
Пароль: Восстановить пароль
Загрузка...

Грозовые ворота (2006) WEBRip 720p от KORSAR

Скачать grozovye-vorota-2006-webrip-720p-ot-korsar.torrent
U Магнитная ссылка Размер: 11.62 GB Раздают: 33 Качают: 25 Добавлен: 2018-08-22 05:43:36
Грозовые ворота (2006) WEBRip 720p от KORSAR

Название: Грозовые ворота
Год выхода: 2005
Жанр: Драма, военный
Режиссер: Андрей Малюков
В ролях: Михаил Пореченков, Вячеслав Разбегаев, Анатолий Пашинин, Андрей Краско, Иван Жидков, Евгений Потапенко, Михаил Ефремов, Даниил Страхов, Елизавета Боярская, Марина Могилевская

О фильме: Рота старшего лейтенанта Александра Доронина откомандирована на Северный Кавказ. Командир полка полковник Галкин поручает Доронину оборону перевала «Грозовые ворота». К роте Доронина прикомандировывают группу спецназа ГРУ под командованием майора Егорова, у которого несколько лет назад от рук террористов погибли жена и сын. Вскоре по прибытии на перевал, Егоров знакомит Доронина со своим доверенным лицом Шахом, бывшим чеченским генералом. У Шаха имеется достоверная информация, что к перевалу стягиваются крупные силы боевиков. Они готовятся нанести роте сокрушительный удар…

Страна: Россия
Студия: Вертикаль
Продолжительность: 4 х ~ 00:50:00

Файл
Кодек: х264
Качество: WEBRip 720p
Видео: MPEG-4 AVC, 1280x720, 25,000 fps, 8081 kbps
Аудио: AC3, 2 ch, 192 Кбит/сек, CBR, 48,0 КГц
Субтитры: Русские
Навигация по главам: Есть

Сравнение с этой раздачей.

Релиз:


[+] MI
x264 [info]: frame I:739 Avg QP:17.94 size:167723
x264 [info]: frame P:20220 Avg QP:19.37 size: 84002
x264 [info]: frame B:57703 Avg QP:21.77 size: 24627

Общее
Уникальный идентификатор : 237884909007783350119499964576135220422 (0xB2F6F78A88637B80963A72C2460D8CC6)
Полное имя : D:Грозовые ворота_2006-WEBRip 720p_KORSARВорота-1.mkv
Формат : Matroska
Версия формата : Version 2
Размер файла : 3,09 Гбайт
Продолжительность : 52 м. 26 с.
Общий поток : 8441 Кбит/сек
Название фильма : Грозовые ворота_2006-WEBRip 720p_KORSAR
Дата кодирования : UTC 2018-08-20 09:56:28
Программа кодирования : mkvmerge v5.8.0 ('No Sleep / Pillow') built on Sep 2 2012 15:37:04
Библиотека кодирования : libebml v1.2.3 + libmatroska v1.3.0

Видео
Идентификатор : 1
Формат : AVC
Формат/Информация : Advanced Video Codec
Профиль формата : High@L4.1
Параметр CABAC формата : Да
Параметр RefFrames формата : 9 кадров
Идентификатор кодека : V_MPEG4/ISO/AVC
Продолжительность : 52 м. 26 с.
Битрейт : 8081 Кбит/сек
Ширина : 1280 пикселей
Высота : 720 пикселей
Соотношение сторон : 16:9
Режим частоты кадров : Постоянный
Частота кадров : 25,000 кадров/сек
Цветовое пространство : YUV
Субдискретизация насыщенности : 4:2:0
Битовая глубина : 8 бит
Тип развёртки : Прогрессивная
Бит/(Пиксели*Кадры) : 0.351
Размер потока : 2,96 Гбайт (96%)
Библиотека кодирования : x264 core 152 r2851kMod ba24899
Настройки программы : cabac=1 / ref=9 / deblock=1:-2:-1 / analyse=0x3:0x113 / me=umh / subme=10 / psy=1 / fade_compensate=0.00 / psy_rd=1.05:0.10 / mixed_ref=1 / me_range=40 / chroma_me=1 / trellis=2 / 8x8dct=1 / cqm=0 / deadzone=21,11 / fast_pskip=1 / chroma_qp_offset=-3 / threads=12 / lookahead_threads=2 / sliced_threads=0 / nr=0 / decimate=1 / interlaced=0 / bluray_compat=0 / constrained_intra=0 / bframes=9 / b_pyramid=2 / b_adapt=2 / b_bias=0 / direct=1 / weightb=1 / open_gop=0 / weightp=2 / keyint=250 / keyint_min=25 / scenecut=40 / intra_refresh=0 / rc=crf / mbtree=0 / crf=17.7000 / qcomp=0.63 / qpmin=0 / qpmax=39 / qpstep=4 / ip_ratio=1.40 / pb_ratio=1.30 / aq=2:1.00
Язык : English
Default : Да
Forced : Нет
Цветовой диапазон : Limited
Основные цвета : BT.709
Характеристики трансфера : BT.709
Коэффициенты матрицы : BT.709

Аудио
Идентификатор : 2
Формат : AC-3
Формат/Информация : Audio Coding 3
Параметр Endianness формата : Big
Идентификатор кодека : A_AC3
Продолжительность : 52 м. 26 с.
Вид битрейта : Постоянный
Битрейт : 192 Кбит/сек
Каналы : 2 канала
Расположение каналов : Front: L R
Частота : 48,0 КГц
Частота кадров : 31,250 кадров/сек (1536 SPF)
Битовая глубина : 16 бит
Метод сжатия : С потерями
Размер потока : 72,0 Мбайт (2%)
Язык : Russian
ServiceKind : Complete Main
Default : Да
Forced : Нет

Текст
Идентификатор : 3
Формат : UTF-8
Идентификатор кодека : S_TEXT/UTF8
Идентификатор кодека/Информация : UTF-8 Plain Text
Язык : Russian
Default : Нет
Forced : Нет

Меню
00:00:00.000 : en:Chapter 1
00:08:58.840 : en:Chapter 2
00:16:29.560 : en:Chapter 3
00:23:55.840 : en:Chapter 4
00:29:22.480 : en:Chapter 5
00:41:35.080 : en:Chapter 6
00:52:26.000 : en:Chapter 7



Скриншоты:
[+] Всего файлов в раздаче - 4:
Ворота-4.mkv3.09 GB
Ворота-1.mkv3.09 GB
Ворота-3.mkv2.72 GB
Ворота-2.mkv2.71 GB

Текущая раздача:
ДатаКомментарии    РазмерПиры
2018-08-22 U Грозовые ворота (2006) WEBRip 720p от KORSAR 11.62 GB ↑ 33 ↓ 25

Похожие раздачи по запросу - грозовые:
2017-03-15 U Грозовые ворота (2006) WEBRip 720p 1К6.85 GB ↑ 959 ↓ 1377
2015-11-30 U Грозовые ворота (2006) DVDRip-AVC от ExKinoRay 3К3.98 GB ↑ 1652 ↓ 14
2013-11-14 U Грозовые ворота (2006) DVDRip от 0ptimus 2.17 GB ↑ 157 ↓ 1

Отзывы
Зарегистрируйтесь чтобы добавить комментарий.
Обратная связь
Copyleft ©