↑↓Torrent.by
Поиск
Логин: Регистрация
Пароль: Восстановить пароль
Загрузка...

Апгрейд / Upgrade (2018) BDRemux 1080p от ExKinoRay | P, L

Скачать apgreyd-upgrade-2018-bdremux-1080p-ot-exkinoray-p-l.torrent
U Магнитная ссылка Размер: 27.46 GB Раздают: 161 Качают: 220 Добавлен: 2018-08-22 20:23:07
Апгрейд / Upgrade (2018) BDRemux 1080p от ExKinoRay | P, L

Название: Апгрейд
Оригинальное название: Upgrade
Год выхода: 2018
Жанр: Фантастика, боевик, триллер, детектив, криминал
Режиссер: Ли Уоннелл
В ролях: Логан Маршалл-Грин, Ричард Анастасиос, Роско Кэмпбелл, Ричард Коуторн, Линда Кроппер, Стив Даниелсен, Майкл М. Фостер, Бетти Гэбриел, Рена Галлахер, Харрисон Гилбертсон

О фильме: Действие разворачивается в ближайшем будущем, в котором разнообразные технологии участвуют во всех аспектах человеческой жизни. Но в этом технологичном будущем Грей — один из немногих людей, кто любит работать руками. Он восстанавливает и чинит старые автомобили. Однажды, возвращаясь от клиента, Грей с женой попадают в аварию, а после — в руки банды отморозков, в результате чего женщина погибает, а Грей оказывается парализованным ниже шеи. Тот самый богатый клиент предлагает несчастному поставить экспериментальный имплант Stem, который может полностью восстановить подвижность.

Страна: Австралия
Студия: Blumhouse Productions, Goalpost Pictures
Продолжительность: 01:39:54
Перевод(ы):
#1: Профессиональный многоголосый | HDRezka Studio
#2: Любительский многоголосый | Колобок

Качество: BDRemux 1080p
Видео: MPEG-4 AVC, 1920x1080, 34.6 Mbit/s, 23.976 fps
Звук:
Аудио #01: 48 kHz, AC3, 2.0, 384 Kbps | Профессиональный многоголосый| RUS |
Аудио #02: 48 kHz, AC3, 5.1, 640 Kbps | Любительский многоголосый | RUS |
Аудио #03: 48 kHz, DTS-HD MA, 5.1, 3689 Kbps | Оригинал |  ENG |
Субтитры: Русские (forced, full), английские

Релиз:

Автор релиза:


[+] MI
General
Unique ID                   : 36223403069406880683035964223848980685 (0x1B405FA8917B34D7AA9B53C2DEF020CD)
Complete name               : D:Video111Upgrade.2018.2xMVO.BDREMUX.1080p.ExKinoRay.mkv
Format                      : Matroska
Format version              : Version 4 / Version 2
File size                   : 27.5 GiB
Duration                    : 1 h 39 min
Overall bit rate mode       : Variable
Overall bit rate            : 39.3 Mb/s
Movie name                  : Upgrade (2018) from ExKinoRay
Encoded date                : UTC 2018-08-22 11:57:34
Writing application         : mkvmerge v23.0.0 ('The Bride Said No') 64-bit
Writing library             : libebml v1.3.6 + libmatroska v1.4.9

Video
ID                          : 1
Format                      : AVC
Format/Info                 : Advanced Video Codec
Format profile              : High@L4.1
Format settings             : CABAC / 4 Ref Frames
Format settings, CABAC      : Yes
Format settings, ReFrames   : 4 frames
Codec ID                    : V_MPEG4/ISO/AVC
Duration                    : 1 h 39 min
Bit rate mode               : Variable
Bit rate                    : 34.6 Mb/s
Maximum bit rate            : 38.7 Mb/s
Width                       : 1 920 pixels
Height                      : 1 080 pixels
Display aspect ratio        : 16:9
Frame rate mode             : Constant
Frame rate                  : 23.976 (24000/1001) FPS
Color space                 : YUV
Chroma subsampling          : 4:2:0
Bit depth                   : 8 bits
Scan type                   : Progressive
Bits/(Pixel*Frame)          : 0.697
Stream size                 : 24.2 GiB (88%)
Language                    : English
Default                     : Yes
Forced                      : No

Audio #1
ID                          : 2
Format                      : AC-3
Format/Info                 : Audio Coding 3
Commercial name             : Dolby Digital
Codec ID                    : A_AC3
Duration                    : 1 h 39 min
Bit rate mode               : Constant
Bit rate                    : 384 kb/s
Channel(s)                  : 2 channels
Channel positions           : Front: L R
Sampling rate               : 48.0 kHz
Frame rate                  : 31.250 FPS (1536 SPF)
Bit depth                   : 16 bits
Compression mode            : Lossy
Stream size                 : 274 MiB (1%)
Title                       : MVO [HDRezka Studio]
Language                    : Russian
Service kind                : Complete Main
Default                     : Yes
Forced                      : Yes

Audio #2
ID                          : 3
Format                      : AC-3
Format/Info                 : Audio Coding 3
Commercial name             : Dolby Digital
Codec ID                    : A_AC3
Duration                    : 1 h 39 min
Bit rate mode               : Constant
Bit rate                    : 640 kb/s
Channel(s)                  : 6 channels
Channel positions           : Front: L C R, Side: L R, LFE
Sampling rate               : 48.0 kHz
Frame rate                  : 31.250 FPS (1536 SPF)
Bit depth                   : 16 bits
Compression mode            : Lossy
Stream size                 : 457 MiB (2%)
Title                       : DVO - Колобок (перемонтаж из Koshara - Ash61)
Language                    : Russian
Service kind                : Complete Main
Default                     : No
Forced                      : No

Audio #3
ID                          : 4
Format                      : DTS
Format/Info                 : Digital Theater Systems
Format profile              : MA / Core
Codec ID                    : A_DTS
Duration                    : 1 h 39 min
Bit rate mode               : Variable / Constant
Bit rate                    : 3 689 kb/s / 1 509 kb/s
Channel(s)                  : 6 channels
Channel positions           : Front: L C R, Side: L R, LFE
Sampling rate               : 48.0 kHz
Frame rate                  : 93.750 FPS (512 SPF)
Bit depth                   : 24 bits
Compression mode            : Lossless / Lossy
Stream size                 : 2.57 GiB (9%)
Title                       : Original
Language                    : English
Default                     : No
Forced                      : No

Text #1
ID                          : 5
Format                      : UTF-8
Codec ID                    : S_TEXT/UTF8
Codec ID/Info               : UTF-8 Plain Text
Duration                    : 1 h 5 min
Bit rate                    : 0 b/s
Count of elements           : 8
Stream size                 : 475 Bytes (0%)
Title                       : Forced
Language                    : Russian
Default                     : Yes
Forced                      : Yes

Text #2
ID                          : 6
Format                      : UTF-8
Codec ID                    : S_TEXT/UTF8
Codec ID/Info               : UTF-8 Plain Text
Duration                    : 1 h 32 min
Bit rate                    : 88 b/s
Count of elements           : 1290
Stream size                 : 59.6 KiB (0%)
Title                       : Полные [перевод - frcr]
Language                    : Russian
Default                     : No
Forced                      : No

Text #3
ID                          : 7
Format                      : UTF-8
Codec ID                    : S_TEXT/UTF8
Codec ID/Info               : UTF-8 Plain Text
Duration                    : 1 h 32 min
Bit rate                    : 49 b/s
Count of elements           : 1290
Stream size                 : 33.3 KiB (0%)
Title                       : Full
Language                    : English
Default                     : No
Forced                      : No

Text #4
ID                          : 8
Format                      : UTF-8
Codec ID                    : S_TEXT/UTF8
Codec ID/Info               : UTF-8 Plain Text
Duration                    : 1 h 35 min
Bit rate                    : 57 b/s
Count of elements           : 1516
Stream size                 : 40.1 KiB (0%)
Title                       : SDH
Language                    : English
Default                     : No
Forced                      : No

Menu
00:00:00.000                : en:00:00:00.000
00:05:38.296                : en:00:05:38.296
00:09:04.919                : en:00:09:04.919
00:15:26.759                : en:00:15:26.759
00:18:42.705                : en:00:18:42.705
00:21:43.636                : en:00:21:43.636
00:28:37.382                : en:00:28:37.382
00:34:42.622                : en:00:34:42.622
00:41:17.058                : en:00:41:17.058
00:47:55.623                : en:00:47:55.623
00:51:14.530                : en:00:51:14.530
00:56:58.457                : en:00:56:58.457
01:01:34.566                : en:01:01:34.566
01:05:22.168                : en:01:05:22.168
01:09:10.938                : en:01:09:10.938
01:16:13.194                : en:01:16:13.194
01:20:17.104                : en:01:20:17.104
01:25:41.928                : en:01:25:41.928
01:31:45.250                : en:01:31:45.250
01:33:57.632                : en:01:33:57.632



Скриншоты:
[+] Всего файлов в раздаче - 1:
Upgrade.2018.2xMVO.BDREMUX.1080p.ExKinoRay.mkv27.46 GB

Текущая раздача:
ДатаКомментарии    РазмерПиры
2018-08-22 U Апгрейд / Upgrade (2018) BDRemux 1080p от ExKinoRay | P, L 27.46 GB ↑ 161 ↓ 220

Показать еще раздачи по запросу апгрейд:
2018-09-02 U Апгрейд / Upgrade (2018) BDRip 720p | P, L, A 4.90 GB ↑ 52 ↓ 38
2018-08-31 U Апгрейд / Upgrade (2018) HDRip от Scarabey | HDRezka Studio 744.78 MB ↑ 78 ↓ 12
2018-08-31 U Апгрейд / Upgrade (2018) BDRip 1080p от HELLYWOOD | A 6.14 GB ↑ 37 ↓ 21
2018-08-30 U Апгрейд / Upgrade (2018) BDRip-HEVC 1080p | 60 fps | HDRezka Studio 4.47 GB ↑ 102 ↓ 26
2018-08-26 U Апгрейд / Upgrade (2018) BDRip 720p от Scarabey | HDRezka Studio 4.73 GB ↑ 96 ↓ 53
2018-08-25 U Апгрейд / Upgrade (2018) HDRip | КПК | HDrezka Studio 377.29 MB ↑ 26 ↓ 9
2018-08-24 U Апгрейд / Upgrade (2018) BDRip-AVC от ExKinoRay | HDRezka Studio 1.69 GB ↑ 104 ↓ 37

Отзывы
Зарегистрируйтесь чтобы добавить комментарий.
Обратная связь
Copyleft ©