↑↓Torrent.by
Поиск
Логин: Регистрация
Пароль: Восстановить пароль
Загрузка...

Zомбоящик (2017) WEB-DLRip-AVC от OlLanDGroup | iTunes

Скачать zomboyaschik-2017-web-dlrip-avc-ot-ollandgroup-itunes.torrent
U Магнитная ссылка Размер: 746.70 MB Раздают: 75 Качают: 14 Добавлен: 2018-08-23 07:51:26
Zомбоящик (2017) WEB-DLRip-AVC от OlLanDGroup | iTunes

Zомбоящик

Год выпуска: 2017
Страна: Россия
Производство: ТНТ
Жанр:  Комедия

Режиссёр: Константин Смирнов
В ролях: Гарик Харламов, Гарик Мартиросян, Тимур Батрутдинов, Александр Ревва, Павел Воля, Екатерина Варнава, Андрей Скороход, Роман Юнусов, Ольга Бузова, Анна Хилькевич

Перевод: Не требуется | iTunes
Субтитры: Нет
Реклама: Отсутствует

Описание: Во времена Шекспира весь мир был театром, в наши же дни его захватил зомбоящик. 30 звезд ТНТ. Все жанры: драма, комедия, боевик, триллер, научная фантастика, байопик, эротика и экспериментальное кино. От бессмысленного и беспощадного стеба не скроется никто: ни футболисты, ни геи, ни чиновники, ни священники, ни расисты, ни онанисты! Герои «Zомбоящика» интригуют, дразнят, издеваются и смеются вместе со зрителями, доказывая, что вся наша жизнь и есть «Zомбоящик».

Качество: WEB-DLRip-AVC
Продолжительность: 00:59:19

Формат: MKV
Видео кодек: MPEG-4 AVC
Аудио кодек: AC3
Видео: 1024x576 (16:9), 25,000 fps, x264 ~1 375 kbps avg, 0.093 bit/pixel
Аудио: 48 kHz, AC3 Dolby Digital, 3/2 (L,C,R,l,r) + LFE ch, ~384.00 kbps avg | RUS (iTunes)

Дата премьеры (РФ): 25 января 2018, «Каропрокат»
Цифровой релиз: 7 июня 2018, «Газпром-медиа»

Релиз: Rip by:


[+] MediaInfo

Общее
Уникальный идентификатор                 : 245497622814636316706685127724537306337 (0xB8B11F4F691B02B2E9C453A2B2195CE1)
Полное имя                               : F:OlLanDGroupZombojaschik.2018.WEB-DLRip(AVC).OlLanDGroup.mkv
Формат                                   : Matroska
Версия формата                           : Version 4 / Version 2
Размер файла                             : 747 Мбайт
Продолжительность                        : 59 м. 19 с.
Общий поток                              : 1760 Кбит/сек
Название фильма                          : Zombojaschik.2018   #TorpedoUK#
Дата кодирования                         : UTC 2018-08-22 15:58:50
Программа кодирования                    : mkvmerge v25.0.0 ('Prog Noir') 64-bit
Библиотека кодирования                   : libebml v1.3.6 + libmatroska v1.4.9

Видео
Идентификатор                            : 1
Формат                                   : AVC
Формат/Информация                        : Advanced Video Codec
Профиль формата                          : High@L4.1
Параметр CABAC формата                   : Да
Параметр ReFrames формата                : 10 кадров
Идентификатор кодека                     : V_MPEG4/ISO/AVC
Продолжительность                        : 59 м. 19 с.
Битрейт                                  : 1375 Кбит/сек
Ширина                                   : 1024 пикселя
Высота                                   : 576 пикселей
Соотношение сторон                       : 16:9
Режим частоты кадров                     : Постоянный
Частота кадров                           : 25,000 кадров/сек
Цветовое пространство                    : YUV
Субдискретизация насыщенности            : 4:2:0
Битовая глубина                          : 8 бит
Тип развёртки                            : Прогрессивная
Бит/(Пиксели*Кадры)                      : 0.093
Размер потока                            : 583 Мбайт (78%)
Библиотека кодирования                   : x264 core 146 r2538 121396c
Настройки программы                      : cabac=1 / ref=10 / deblock=1:-3:-3 / analyse=0x3:0x113 / me=umh / subme=11 / psy=1 / psy_rd=0.97:0.05 / mixed_ref=1 / me_range=48 / chroma_me=1 / trellis=2 / 8x8dct=1 / cqm=0 / deadzone=21,11 / fast_pskip=1 / chroma_qp_offset=-3 / threads=6 / lookahead_threads=1 / sliced_threads=0 / nr=0 / decimate=1 / interlaced=0 / bluray_compat=0 / constrained_intra=0 / bframes=10 / b_pyramid=2 / b_adapt=2 / b_bias=0 / direct=3 / weightb=1 / open_gop=0 / weightp=2 / keyint=240 / keyint_min=24 / scenecut=40 / intra_refresh=0 / rc_lookahead=40 / rc=2pass / mbtree=1 / bitrate=1375 / ratetol=1.0 / qcomp=0.60 / qpmin=0 / qpmax=69 / qpstep=4 / cplxblur=20.0 / qblur=0.5 / vbv_maxrate=50000 / vbv_bufsize=62500 / nal_hrd=none / filler=0 / ip_ratio=1.40 / aq=1:1.00
Default                                  : Да
Forced                                   : Нет

Аудио
Идентификатор                            : 2
Формат                                   : AC-3
Формат/Информация                        : Audio Coding 3
Расширение режима                        : CM (complete main)
Параметр Endianness формата              : Big
Идентификатор кодека                     : A_AC3
Продолжительность                        : 59 м. 19 с.
Вид битрейта                             : Постоянный
Битрейт                                  : 384 Кбит/сек
Каналы                                   : 6 каналов
Расположение каналов                     : Front: L C R, Side: L R, LFE
Частота                                  : 48,0 КГц
Частота кадров                           : 31,250 кадров/сек (1536 spf)
Битовая глубина                          : 16 бит
Метод сжатия                             : С потерями
Размер потока                            : 163 Мбайт (22%)
Заголовок                                : iTunes
Язык                                     : Russian
Default                                  : Да
Forced                                   : Нет



Скриншоты:
[+] Всего файлов в раздаче - 1:
Zombojaschik.2018.WEB-DLRip(AVC).OlLanDGroup.mkv746.70 MB

Текущая раздача:
ДатаКомментарии    РазмерПиры
2018-08-23 U Zомбоящик (2017) WEB-DLRip-AVC от OlLanDGroup | iTunes 746.70 MB ↑ 75 ↓ 14

Похожие раздачи по запросу - zомбоящик:
2018-06-09 U Zомбоящик (2018) WEB-DLRip от GeneralFilm | iTunes 1К743.23 MB ↑ 348 ↓ 96
2018-06-07 U Zомбоящик (2018) WEB-DLRip | iTunes 1.37 GB ↑ 1047 ↓ 294
2018-06-07 U Zомбоящик (2018) WEB-DL 1080р | iTunes 2.30 GB ↑ 509 ↓ 235

Отзывы
Зарегистрируйтесь чтобы добавить комментарий.
Обратная связь
Copyleft ©