↑↓Torrent.by
Поиск
Логин: Регистрация
Пароль: Восстановить пароль
Загрузка...

Апгрейд / Upgrade (2018) BDRip 1080p от Ash61 | P

Скачать apgreyd-upgrade-2018-bdrip-1080p-ot-ash61-p.torrent
U Магнитная ссылка Размер: 7.18 GB Раздают: 283 Качают: 147 Добавлен: 2018-08-24 07:43:46
Апгрейд / Upgrade (2018) BDRip 1080p от Ash61 | P

Апгрейд
Upgrade
«Не человек. Не машина. Большее.»


Год выпуска: 2018
Страна: Австралия (OTL Releasing, Blumhouse Goalpost Pictures, Automatik Entertainment, Nervous Tick, Film Victoria)
Жанр:  фантастика, боевик, триллер, детектив, криминал
Продолжительность: 01:39:55

Перевод: Профессиональный (многоголосый закадровый) - HDrezka

Автор сценария и режиссер: Ли Уоннелл / Leigh Whannell

В ролях:

Логан Маршалл-Грин (Grey Trace), Мелани Валльехо (Asha Trace), Бетти Гэбриел (Cortez), Линда Кроппер (Pamela), Харрисон Гилбертсон (Eron), Бенедикт Харди (Fisk), Клэйтон Джейкобсон (Manny), Кристофер Кирби (Tolan), Ричард Коуторн (Serk)

Описание: Действие разворачивается в ближайшем будущем, в котором разнообразные технологии участвуют во всех аспектах человеческой жизни. Но в этом технологичном будущем Грей — один из немногих людей, кто любит работать руками. Он восстанавливает и чинит старые автомобили. Однажды, возвращаясь от клиента, Грей с женой попадают в аварию, а после — в руки банды отморозков, в результате чего женщина погибает, а Грей оказывается парализованным ниже шеи. Тот самый богатый клиент предлагает несчастному поставить экспериментальный имплант Stem, который может полностью восстановить подвижность.

Доп. инфо: Русская дорога получена вставкой вырезанных фраз в оригинальную дорогу (спасибо karasidi!).

Премьера (мир): 10 марта 2018

Качество: BDRip (by Ash61)
Контейнер: MKV

Видео: AVC / 1920х804p / 23,976 fps / 9000 Kbps

Аудио:
#1 - Русский / AC3 / 48 KHz / 5.1 ch / 640 Kbps (MVO - HDrezka) (одно слово ненормативное!) (перемонтаж - karasidi)
#2 - Английский / AC3 / 48 KHz / 5.1 ch / 640 Kbps (Original)

Субтитры (SRT):
Вшитые (softsub):
#1 - Русские Форсированные [на несколько плохо разборчивых фраз] (включены по умолчанию)
#2 - Русские Полные [перевод frcr] (ненормативная лексика, несколько раз)
#3 - English Full
#4 - English SDH

Внешние (UTF-8):
#1 - Русские Форсированные [на несколько плохо разборчивых фраз] (включены по умолчанию)
[+] MediaInfo
General
Unique ID                   : 215976382071491495791689506107967098692 (0xA27B89C446C31463AC7C719E3C334F44)
Complete name               : D:Upgrade(2018)BDRip.1080p[Ash61](HDrezka-5.1[karasidi])Upgrade(2018)BDRip.1080p[Ash61](HDrezka-5.1[karasidi]).mkv
Format                      : Matroska
Format version              : Version 2
File size                   : 7.18 GiB
Duration                    : 1h 39mn
Overall bit rate            : 10.3 Mbps
Movie name                  : Апгрейд / Upgrade (2018)
Encoded date                : UTC 2018-08-23 15:54:16
Writing application         : mkvmerge v5.8.0 ('No Sleep / Pillow') built on Sep  2 2012 15:37:04
Writing library             : libebml v1.2.3 + libmatroska v1.3.0

Video
ID                          : 1
Format                      : AVC
Format/Info                 : Advanced Video Codec
Format profile              : High@L4.1
Format settings, CABAC      : Yes
Format settings, ReFrames   : 4 frames
Codec ID                    : V_MPEG4/ISO/AVC
Duration                    : 1h 39mn
Bit rate                    : 9 000 Kbps
Width                       : 1 920 pixels
Height                      : 804 pixels
Display aspect ratio        : 2.40:1
Frame rate mode             : Constant
Frame rate                  : 23.976 (24000/1001) fps
Color space                 : YUV
Chroma subsampling          : 4:2:0
Bit depth                   : 8 bits
Scan type                   : Progressive
Bits/(Pixel*Frame)          : 0.243
Stream size                 : 6.14 GiB (86%)
Title                       : BDRip by Ash61
Writing library             : x264 core 146 r2538 121396c
Encoding settings           : cabac=1 / ref=4 / deblock=1:-3:-3 / analyse=0x3:0x113 / me=umh / subme=10 / psy=1 / psy_rd=1.00:0.00 / mixed_ref=1 / me_range=32 / chroma_me=1 / trellis=2 / 8x8dct=1 / cqm=0 / deadzone=21,11 / fast_pskip=0 / chroma_qp_offset=-2 / threads=12 / lookahead_threads=3 / sliced_threads=0 / nr=0 / decimate=0 / interlaced=0 / bluray_compat=0 / constrained_intra=0 / bframes=15 / b_pyramid=2 / b_adapt=2 / b_bias=0 / direct=3 / weightb=1 / open_gop=0 / weightp=2 / keyint=250 / keyint_min=23 / scenecut=40 / intra_refresh=0 / rc_lookahead=60 / rc=2pass / mbtree=0 / bitrate=9000 / ratetol=1.0 / qcomp=0.70 / qpmin=0 / qpmax=69 / qpstep=4 / cplxblur=20.0 / qblur=0.5 / vbv_maxrate=40000 / vbv_bufsize=30000 / nal_hrd=none / filler=0 / ip_ratio=1.40 / pb_ratio=1.30 / aq=1:0.70
Language                    : English
Default                     : Yes
Forced                      : No

Audio #1
ID                          : 2
Format                      : AC-3
Format/Info                 : Audio Coding 3
Mode extension              : CM (complete main)
Format settings, Endianness : Big
Codec ID                    : A_AC3
Duration                    : 1h 39mn
Bit rate mode               : Constant
Bit rate                    : 640 Kbps
Channel(s)                  : 6 channels
Channel positions           : Front: L C R, Side: L R, LFE
Sampling rate               : 48.0 KHz
Frame rate                  : 31.250 fps (1536 spf)
Compression mode            : Lossy
Stream size                 : 457 MiB (6%)
Title                       : MVO - HDrezka (перемонтаж - karasidi)
Language                    : Russian
Default                     : Yes
Forced                      : No

Audio #2
ID                          : 3
Format                      : AC-3
Format/Info                 : Audio Coding 3
Mode extension              : CM (complete main)
Format settings, Endianness : Big
Codec ID                    : A_AC3
Duration                    : 1h 39mn
Bit rate mode               : Constant
Bit rate                    : 640 Kbps
Channel(s)                  : 6 channels
Channel positions           : Front: L C R, Side: L R, LFE
Sampling rate               : 48.0 KHz
Frame rate                  : 31.250 fps (1536 spf)
Compression mode            : Lossy
Stream size                 : 457 MiB (6%)
Title                       : Original
Language                    : English
Default                     : No
Forced                      : No

Text #1
ID                          : 4
Format                      : UTF-8
Codec ID                    : S_TEXT/UTF8
Codec ID/Info               : UTF-8 Plain Text
Title                       : Форсированные (на плохо разборчивые фразы HDrezka)
Language                    : Russian
Default                     : Yes
Forced                      : No

Text #2
ID                          : 5
Format                      : UTF-8
Codec ID                    : S_TEXT/UTF8
Codec ID/Info               : UTF-8 Plain Text
Title                       : Полные [перевод - frcr]
Language                    : Russian
Default                     : No
Forced                      : No

Text #3
ID                          : 6
Format                      : UTF-8
Codec ID                    : S_TEXT/UTF8
Codec ID/Info               : UTF-8 Plain Text
Title                       : Full
Language                    : English
Default                     : No
Forced                      : No

Text #4
ID                          : 7
Format                      : UTF-8
Codec ID                    : S_TEXT/UTF8
Codec ID/Info               : UTF-8 Plain Text
Title                       : SDH
Language                    : English
Default                     : No
Forced                      : No

Menu
00:00:00.000                : en:00:00:00.000
00:05:38.296                : en:00:05:38.296
00:09:04.919                : en:00:09:04.919
00:15:26.759                : en:00:15:26.759
00:18:42.705                : en:00:18:42.705
00:21:43.636                : en:00:21:43.636
00:28:37.382                : en:00:28:37.382
00:34:42.622                : en:00:34:42.622
00:41:17.058                : en:00:41:17.058
00:47:55.623                : en:00:47:55.623
00:51:14.530                : en:00:51:14.530
00:56:58.457                : en:00:56:58.457
01:01:34.566                : en:01:01:34.566
01:05:22.168                : en:01:05:22.168
01:09:10.938                : en:01:09:10.938
01:16:13.194                : en:01:16:13.194
01:20:17.104                : en:01:20:17.104
01:25:41.928                : en:01:25:41.928
01:31:45.250                : en:01:31:45.250
01:33:57.632                : en:01:33:57.632



Скриншоты:
[+] Всего файлов в раздаче - 2:
Upgrade(2018)BDRip.1080p[Ash61](HDrezka-5.1[karasidi]).mkv7.18 GB
Upgrade(2018)BDRip.1080p[Ash61](HDrezka-5.1[karasidi]).srt895.00 B

Текущая раздача:
ДатаКомментарии    РазмерПиры
2018-08-24 U Апгрейд / Upgrade (2018) BDRip 1080p от Ash61 | P 7.18 GB ↑ 283 ↓ 147

Показать еще раздачи по запросу апгрейд:
2018-09-02 U Апгрейд / Upgrade (2018) BDRip 720p | P, L, A 4.90 GB ↑ 53 ↓ 38
2018-08-31 U Апгрейд / Upgrade (2018) HDRip от Scarabey | HDRezka Studio 744.78 MB ↑ 78 ↓ 12
2018-08-31 U Апгрейд / Upgrade (2018) BDRip 1080p от HELLYWOOD | A 6.14 GB ↑ 38 ↓ 21
2018-08-30 U Апгрейд / Upgrade (2018) BDRip-HEVC 1080p | 60 fps | HDRezka Studio 4.47 GB ↑ 102 ↓ 26
2018-08-26 U Апгрейд / Upgrade (2018) BDRip 720p от Scarabey | HDRezka Studio 4.73 GB ↑ 96 ↓ 53
2018-08-25 U Апгрейд / Upgrade (2018) HDRip | КПК | HDrezka Studio 377.29 MB ↑ 26 ↓ 9
2018-08-24 U Апгрейд / Upgrade (2018) BDRip-AVC от ExKinoRay | HDRezka Studio 1.69 GB ↑ 105 ↓ 37

Отзывы
Зарегистрируйтесь чтобы добавить комментарий.
Обратная связь
Copyleft ©