↑↓Torrent.by
Поиск
Логин: Регистрация
Пароль: Восстановить пароль
Загрузка...

За спичками (1979) WEBRip 720p от KORSAR

Скачать za-spichkami-1979-webrip-720p-ot-korsar.torrent
U Магнитная ссылка Размер: 4.78 GB Раздают: 32 Качают: 15 Добавлен: 2018-08-24 07:52:00
За спичками (1979) WEBRip 720p от KORSAR

Страна: СССР, Финляндия
Жанр:  комедия
Год выпуска: 1979
Продолжительность: 01:33:50
Режиссёр: Леонид Гайдай, Ристо Орко
В ролях: Евгений Леонов, Вячеслав Невинный, Рита Полстер, Ритва Валкама, Георгий Вицин, Галина Польских, Кауко Хеловирта, Лео Ластумаки, Пекка Аутиовуори, Олави Ахонен...

Описание: В доме Ихалайнена кончились спички и невозможно развести огонь для приготовления так любимого финнами кофе. Потом случайная встреча с приятелем, и как следствие того, нарушение данного двадцать лет назад зарока не брать в рот спиртного. Затем неожиданное свидание в городе Юсси Ватанена со своей старой подружкой…

Кодек: х264
Качество: WEBRip 720p
Видео: MPEG-4 AVC, 994x720, 25 fps, 6469 Кбит/с
Звук: AC3, 6 ch, 448 Кбит/с, AC3, 1 ch, 224 Кбит/с
[+] Инфо файл
[list]
x264 [info]: frame I:830   Avg QP:18.91  size:148232
x264 [info]: frame P:38089 Avg QP:20.32  size: 71647
x264 [info]: frame B:101844 Avg QP:22.46  size: 17693
x264 [info]: consecutive B-frames:  5.8%  4.1%  8.1% 33.7% 19.0% 28.7%  0.5%  0.1%  0.0%[/list]Общее
Уникальный идентификатор                 : 254937572964866829508942748518558062059 (0xBFCB30C957B4BB53B1CD591FB9BDD5EB)
Полное имя                               : D:За спичками_1980-WEB-DLRip 720p_KORSAR.mkv
Формат                                   : Matroska
Версия формата                           : Version 2
Размер файла                             : 4,78 Гбайт
Продолжительность                        : 1 ч. 33 м.
Общий поток                              : 7286 Кбит/сек
Название фильма                          : За спичками_1980-WEB-DLRip 720p_KORSAR
Дата кодирования                         : UTC 2018-06-07 19:37:40
Программа кодирования                    : mkvmerge v5.8.0 ('No Sleep / Pillow') built on Sep  2 2012 15:37:04
Библиотека кодирования                   : libebml v1.2.3 + libmatroska v1.3.0

Видео
Идентификатор                            : 1
Формат                                   : AVC
Формат/Информация                        : Advanced Video Codec
Профиль формата                          : High@L4.1
Параметр CABAC формата                   : Да
Параметр RefFrames формата               : 11 кадров
Идентификатор кодека                     : V_MPEG4/ISO/AVC
Продолжительность                        : 1 ч. 33 м.
Битрейт                                  : 6469 Кбит/сек
Ширина                                   : 994 пикселя
Высота                                   : 720 пикселей
Соотношение сторон                       : 1,381
Режим частоты кадров                     : Постоянный
Частота кадров                           : 25,000 кадров/сек
Цветовое пространство                    : YUV
Субдискретизация насыщенности            : 4:2:0
Битовая глубина                          : 8 бит
Тип развёртки                            : Прогрессивная
Бит/(Пиксели*Кадры)                      : 0.362
Размер потока                            : 4,24 Гбайт (89%)
Библиотека кодирования                   : x264 core 152 r2851kMod ba24899
Настройки программы                      : cabac=1 / ref=11 / deblock=1:-2:-1 / analyse=0x3:0x113 / me=umh / subme=10 / psy=1 / fade_compensate=0.00 / psy_rd=1.05:0.10 / mixed_ref=1 / me_range=40 / chroma_me=1 / trellis=2 / 8x8dct=1 / cqm=0 / deadzone=21,11 / fast_pskip=1 / chroma_qp_offset=-3 / threads=12 / lookahead_threads=2 / sliced_threads=0 / nr=0 / decimate=1 / interlaced=0 / bluray_compat=0 / constrained_intra=0 / bframes=8 / b_pyramid=2 / b_adapt=2 / b_bias=0 / direct=1 / weightb=1 / open_gop=0 / weightp=2 / keyint=250 / keyint_min=25 / scenecut=40 / intra_refresh=0 / rc=crf / mbtree=0 / crf=17.8000 / qcomp=0.63 / qpmin=0 / qpmax=39 / qpstep=4 / ip_ratio=1.40 / pb_ratio=1.30 / aq=1:0.90
Язык                                     : English
Default                                  : Да
Forced                                   : Нет
Цветовой диапазон                        : Limited
Основные цвета                           : BT.709
Характеристики трансфера                 : BT.709
Коэффициенты матрицы                     : BT.709

Аудио #1
Идентификатор                            : 2
Формат                                   : AC-3
Формат/Информация                        : Audio Coding 3
Параметр Endianness формата              : Big
Идентификатор кодека                     : A_AC3
Продолжительность                        : 1 ч. 33 м.
Вид битрейта                             : Постоянный
Битрейт                                  : 448 Кбит/сек
Каналы                                   : 6 каналов
Расположение каналов                     : Front: L C R, Side: L R, LFE
Частота                                  : 48,0 КГц
Частота кадров                           : 31,250 кадров/сек (1536 SPF)
Битовая глубина                          : 16 бит
Метод сжатия                             : С потерями
Размер потока                            : 301 Мбайт (6%)
Язык                                     : Russian
Default                                  : Да
Forced                                   : Нет

Аудио #2
Идентификатор                            : 3
Формат                                   : AC-3
Формат/Информация                        : Audio Coding 3
Параметр Endianness формата              : Big
Идентификатор кодека                     : A_AC3
Продолжительность                        : 1 ч. 33 м.
Вид битрейта                             : Постоянный
Битрейт                                  : 224 Кбит/сек
Каналы                                   : 1 канал
Расположение каналов                     : Front: C
Частота                                  : 48,0 КГц
Частота кадров                           : 31,250 кадров/сек (1536 SPF)
Битовая глубина                          : 16 бит
Метод сжатия                             : С потерями
Размер потока                            : 150 Мбайт (3%)
Язык                                     : Russian
Default                                  : Нет
Forced                                   : Нет

Меню
00:00:00.000                             : en:Chapter 1
00:06:04.800                             : en:Chapter 2
00:12:05.280                             : en:Chapter 3
00:15:30.720                             : en:Chapter 4
00:19:59.520                             : en:Chapter 5
00:27:58.560                             : en:Chapter 6
00:32:42.240                             : en:Chapter 7
00:37:37.440                             : en:Chapter 8
00:47:31.680                             : en:Chapter 9
00:52:01.440                             : en:Chapter 10
00:59:50.880                             : en:Chapter 11
01:09:34.080                             : en:Chapter 12
01:13:17.760                             : en:Chapter 13
01:18:14.880                             : en:Chapter 14
01:24:52.320                             : en:Chapter 15
01:30:10.560                             : en:Chapter 16




Скриншоты:
[+] Всего файлов в раздаче - 1:
За спичками_1980-WEBRip 720p_KORSAR.mkv4.78 GB

Текущая раздача:
ДатаКомментарии    РазмерПиры
2018-08-24 U За спичками (1979) WEBRip 720p от KORSAR 2 К 4.78 GB ↑ 32 ↓ 15

Похожие раздачи по запросу - спичками:
2015-12-25 U Девочка со спичками / Das Mädchen mit den Schwefelhölzern (2013) HDTVRip 1080p | P2 2.11 GB ↑ 143 ↓ 82
2015-06-21 U Игры разума №4. Игры со спичками (2015) PDF 46.41 MB ↑ 926 ↓ 2
2013-12-04 U За спичками (1979) DVDRip от New-Team 1.46 GB ↑ 151 ↓ 4
2013-11-10 U Николай Тарадайко - Увлекательные задачи, головоломки с монетами и спичками (2011) PDF 1К24.86 MB ↑ 495 ↓ 28
2013-10-20 U За спичками (1979) DVDRip-AVC 1К1.46 GB ↑ 155 ↓ 65534

Отзывы
dimonmm22
Спасибо за такое качество! Фильм из вечной золотой коллекции о людях , времени и жизни !

valeritar
Да Евгений Леонов здесь изумительно сыграл!! Спасибо раздающему!!

Зарегистрируйтесь чтобы добавить комментарий.
Обратная связь
Copyleft ©