↑↓Torrent.by
Поиск
Логин: Регистрация
Пароль: Восстановить пароль
Загрузка...

Ты - мне, я – тебе (1976) WEBRip-AVC от KORSAR

Скачать ty-mne-ya-tebe-1976-webrip-avc-ot-korsar.torrent
U Магнитная ссылка Размер: 1.94 GB Раздают: 109 Качают: 14 Добавлен: 2018-08-24 12:48:28
Ты - мне, я – тебе (1976) WEBRip-AVC от KORSAR

Год выпуска: 1976
Жанр:  Комедия
Страна: СССР
Продолжительность: 01:21:45
Режиссер: Александр Серый
В ролях: Леонид Куравлев, Татьяна Пельтцер, Алла Мещерякова, Светлана Светличная, Юрий Медведев, Валерий Носик, Роман Ткачук, Евгений Шутов, Илья Рутберг, Валентина Карева, Вера Бурлакова, Эммануил Геллер, Николай Горлов, Николай Сморчков, Ян Янакиев, Людмила Карауш, Юрий Леонидов

Описание: У Ивана Сергеевича Кашкина, столичного банщика, весьма знатная клиентура. И только поэтому любой дефицитный товар - всегда к его услугам. Жизнь течет в нужном русле, он спокоен и счастлив. Но болезнь брата-близнеца, инспектора рыбнадзора неожиданно меняет его судьбу. Временно заменив брата на работе, он становится соучастником преступления...

Кодек: х264
Качество: WEBRip-AVC
Видео: MPEG-4 AVC, 1024x484, 25 fps, 3135 Кбит/с
Звук:  AC3, 2 ch, 192 Кбит/с
[+] Инфо файл
[list]
x264 [info]: frame I:742   Avg QP:17.70  size: 85401
x264 [info]: frame P:30409 Avg QP:19.22  size: 39365
x264 [info]: frame B:91488 Avg QP:21.77  size:  7673
x264 [info]: consecutive B-frames:  2.0%  4.0%  9.5% 42.9% 19.8% 20.6%  1.0%  0.3%  0.0%  0.0%[/list]Общее
Уникальный идентификатор                 : 222349504384679159281636962861291362171 (0xA746F4F4DE950512B865C2C30387577B)
Полное имя                               : D:Ты мне, я тебе_1976-WEBRip-AVC_KORSAR.mkv
Формат                                   : Matroska
Версия формата                           : Version 2
Размер файла                             : 1,94 Гбайт
Продолжительность                        : 1 ч. 21 м.
Общий поток                              : 3394 Кбит/сек
Название фильма                          : Ты мне, я тебе_1976-WEBRip-AVC_KORSAR
Дата кодирования                         : UTC 2018-07-25 15:36:56
Программа кодирования                    : mkvmerge v5.8.0 ('No Sleep / Pillow') built on Sep  2 2012 15:37:04
Библиотека кодирования                   : libebml v1.2.3 + libmatroska v1.3.0

Видео
Идентификатор                            : 1
Формат                                   : AVC
Формат/Информация                        : Advanced Video Codec
Профиль формата                          : High@L4.1
Параметр CABAC формата                   : Да
Параметр RefFrames формата               : 14 кадров
Идентификатор кодека                     : V_MPEG4/ISO/AVC
Продолжительность                        : 1 ч. 21 м.
Битрейт                                  : 3135 Кбит/сек
Ширина                                   : 1024 пикселя
Высота                                   : 484 пикселя
Соотношение сторон                       : 2,116
Режим частоты кадров                     : Постоянный
Частота кадров                           : 25,000 кадров/сек
Цветовое пространство                    : YUV
Субдискретизация насыщенности            : 4:2:0
Битовая глубина                          : 8 бит
Тип развёртки                            : Прогрессивная
Бит/(Пиксели*Кадры)                      : 0.253
Размер потока                            : 1,79 Гбайт (92%)
Библиотека кодирования                   : x264 core 152 r2851kMod ba24899
Настройки программы                      : cabac=1 / ref=14 / deblock=1:-2:-1 / analyse=0x3:0x113 / me=umh / subme=10 / psy=1 / fade_compensate=0.00 / psy_rd=1.05:0.10 / mixed_ref=1 / me_range=40 / chroma_me=1 / trellis=2 / 8x8dct=1 / cqm=0 / deadzone=21,11 / fast_pskip=1 / chroma_qp_offset=-3 / threads=12 / lookahead_threads=2 / sliced_threads=0 / nr=0 / decimate=1 / interlaced=0 / bluray_compat=0 / constrained_intra=0 / bframes=9 / b_pyramid=2 / b_adapt=2 / b_bias=0 / direct=1 / weightb=1 / open_gop=0 / weightp=2 / keyint=250 / keyint_min=25 / scenecut=40 / intra_refresh=0 / rc=crf / mbtree=0 / crf=17.6000 / qcomp=0.63 / qpmin=0 / qpmax=39 / qpstep=4 / ip_ratio=1.40 / pb_ratio=1.30 / aq=2:0.80
Язык                                     : English
Default                                  : Да
Forced                                   : Нет
Цветовой диапазон                        : Limited
Основные цвета                           : BT.709
Характеристики трансфера                 : BT.709
Коэффициенты матрицы                     : BT.709

Аудио
Идентификатор                            : 2
Формат                                   : AC-3
Формат/Информация                        : Audio Coding 3
Параметр Endianness формата              : Big
Идентификатор кодека                     : A_AC3
Продолжительность                        : 1 ч. 21 м.
Вид битрейта                             : Постоянный
Битрейт                                  : 192 Кбит/сек
Каналы                                   : 2 канала
Расположение каналов                     : Front: L R
Частота                                  : 48,0 КГц
Частота кадров                           : 31,250 кадров/сек (1536 SPF)
Битовая глубина                          : 16 бит
Метод сжатия                             : С потерями
Размер потока                            : 112 Мбайт (6%)
Язык                                     : Russian
Default                                  : Да
Forced                                   : Нет

Меню
00:00:00.000                             : en:Chapter 1
00:06:02.400                             : en:Chapter 2
00:12:15.000                             : en:Chapter 3
00:17:34.800                             : en:Chapter 4
00:22:42.680                             : en:Chapter 5
00:28:36.600                             : en:Chapter 6
00:34:35.600                             : en:Chapter 7
00:43:01.000                             : en:Chapter 8
00:48:44.200                             : en:Chapter 9
00:53:03.080                             : en:Chapter 10
00:58:51.120                             : en:Chapter 11
01:03:45.120                             : en:Chapter 12
01:10:13.120                             : en:Chapter 13
01:15:07.640                             : en:Chapter 14




Скриншоты:
[+] Всего файлов в раздаче - 1:
Ты мне, я тебе_1976-WEBRip-AVC_KORSAR.mkv1.94 GB

Текущая раздача:
ДатаКомментарии    РазмерПиры
2018-08-24 U Ты - мне, я – тебе (1976) WEBRip-AVC от KORSAR 1 К 1.94 GB ↑ 109 ↓ 14

Показать еще раздачи по запросу тебе:
2018-09-09 U Я подарю тебе рассвет [01-04 из 04] (2018) SATRip от Files-x 2.72 GB ↑ 64 ↓ 101
2018-07-15 U Тебе конец! / You're Next (2013) BDRip 720p от HELLYWOOD | Лицензия 4.42 GB ↑ 57 ↓ 20
2017-12-06 U Тебе конец! / You're Next (2013) BDRip-AVC от ExKinoRay | Лицензия 1К2.05 GB ↑ 44 ↓ 20
2017-08-26 U VA - Клубные Пушки. Лучшее Тебе в Уши [Sound Clinic - Special Edition] (2017) MP3 7.54 GB ↑ 230 ↓ 77
2016-06-04 U Сборник - Я куплю тебе дом. Шансон 90-х (2014) MP3 639.70 MB ↑ 652 ↓ 9
2014-04-13 U Я подарю тебе любовь (2014) SATRip от Кинозал 1.17 GB ↑ 224 ↓ 79
2014-02-15 U VA - Тебе. В День Святого Валентина 2014 (2014) MP3 ot ikar911 (2014) MP3 948.39 MB ↑ 78 ↓ 0

Отзывы
Njusha2016
Спасибо. Замечательный фильм.

Зарегистрируйтесь чтобы добавить комментарий.
Обратная связь
Copyleft ©