↑↓Torrent.by
Поиск
Логин: Регистрация
Пароль: Восстановить пароль
Загрузка...

Ты водишь! / Tag (2018) BDRip 1080p | HDrezka Studio

Скачать ty-vodish-tag-2018-bdrip-1080p-hdrezka-studio.torrent
U Магнитная ссылка Размер: 6.83 GB Раздают: 448 Качают: 331 Добавлен: 2018-08-25 13:38:21
Ты водишь! / Tag (2018) BDRip 1080p | HDrezka Studio

Название: Ты водишь!
Оригинальное название: Tag
Год выхода: 2018
Жанр: комедия
Режиссер: Джефф Томсич
В ролях: Эд Хелмс, Джереми Реннер, Джон Хэмм, Джейк Джонсон, Хэннибал Бёресс, Аннабелль Уоллис, Айла Фишер, Рашида Джонс, Лил Релл, Нора Данн

О фильме:
Каждый год в течение месяца пятеро друзей участвуют в беспощадно навороченной версии игры в кошки-мышки. Они играют в нее с первого класса, чтобы, рискуя собственной шеей, работой и отношениями, одолеть противника с победоносным криком: «Ты водишь!»
В этом году кошки-мышки приходятся на свадьбу единственного непобежденного игрока, что должно сделать из него легкую мишень. Но он знает, что они придут… и он готов.

 
Страна: США
Студия: Broken Road Productions, New Line Cinema
Продолжительность: 01:40:33
Перевод: Профессиональный (многоголосый, закадровый) | HDrezka Studio

Файл
Кодек: H.264
Качество: BDRip 1080p | HDrezka Studio
Видео: AVC/H.264, 1920x804, ~8018 kbps, 23.976 fps
Звук:
Аудио 1: AC3, 2 ch, 192 Kbps - Русский
Аудио 2: DTS, 6 ch, 1509 Kbps - Английский
Субтитры: Английские

Семпл


[+] Mediainfo
Общее
Уникальный идентификатор                 : 143215767876336394362820838187931029703 (0x6BBE5A849F202980BA65E907E75C50C7)
Полное имя                               : Tag.2018.BDRip.1080p.mkv
Формат                                   : Matroska
Версия формата                           : Version 4 / Version 2
Размер файла                             : 6,83 Гбайт
Продолжительность                        : 1 ч. 40 м.
Общий поток                              : 9722 Кбит/сек
Дата кодирования                         : UTC 2018-08-25 07:11:11
Программа кодирования                    : mkvmerge v23.0.0 ('The Bride Said No') 64-bit
Библиотека кодирования                   : libebml v1.3.6 + libmatroska v1.4.9

Видео
Идентификатор                            : 1
Формат                                   : AVC
Формат/Информация                        : Advanced Video Codec
Профиль формата                          : High@L4.1
Настройки формата                        : CABAC / 4 Ref Frames
Параметр CABAC формата                   : Да
Параметр RefFrames формата               : 4 кадра
Идентификатор кодека                     : V_MPEG4/ISO/AVC
Продолжительность                        : 1 ч. 40 м.
Битрейт                                  : 8018 Кбит/сек
Ширина                                   : 1920 пикселей
Высота                                   : 804 пикселя
Соотношение сторон                       : 2,40:1
Режим частоты кадров                     : Постоянный
Частота кадров                           : 23,976 (24000/1001) кадра/сек
Цветовое пространство                    : YUV
Субдискретизация насыщенности            : 4:2:0
Битовая глубина                          : 8 бит
Тип развёртки                            : Прогрессивная
Бит/(Пиксели*Кадры)                      : 0.217
Размер потока                            : 5,63 Гбайт (82%)
Заголовок                                : CHD
Библиотека кодирования                   : x264 core 155 r2867+74 66b5600 t_mod_Custom_2 [8-bit@all X86_64]
Настройки программы                      : cabac=1 / ref=4 / deblock=1:-3:-3 / analyse=0x3:0x113 / me=umh / subme=10 / psy=1 / fade_compensate=0.00 / psy_rd=0.90:0.10 / mixed_ref=1 / me_range=48 / chroma_me=1 / trellis=2 / 8x8dct=1 / cqm=0 / deadzone=21,11 / fast_pskip=0 / chroma_qp_offset=-2 / threads=18 / lookahead_threads=3 / sliced_threads=0 / nr=0 / decimate=1 / interlaced=0 / bluray_compat=0 / constrained_intra=0 / fgo=0 / bframes=8 / b_pyramid=2 / b_adapt=2 / b_bias=0 / direct=3 / weightb=1 / open_gop=0 / weightp=2 / keyint=250 / keyint_min=23 / scenecut=40 / intra_refresh=0 / rc_lookahead=40 / rc=crf / mbtree=0 / crf=20.0000 / qcomp=0.70 / qpmin=0:0:0 / qpmax=69:69:69 / qpstep=4 / vbv_maxrate=35000 / vbv_bufsize=35000 / crf_max=0.0 / nal_hrd=none / filler=0 / ip_ratio=1.40 / pb_ratio=1.30 / aq=3:0.90 / aq-sensitivity=10.00 / aq-factor=1.00:1.00:1.00 / aq2=0 / aq3=2:[0.50:0.50]:[0.50:0.50]:[0.50:0.50]:[0.50:0.50] / aq3-sensitivity=10.00 / aq3-factor=[1.00:1.00]:[1.00:1.00]:[1.00:1.00] / aq3-boundary=192:64:24
Язык                                     : English
Default                                  : Да
Forced                                   : Нет
Цветовой диапазон                        : Limited
Коэффициенты матрицы                     : BT.709

Аудио #1
Идентификатор                            : 2
Формат                                   : AC-3
Формат/Информация                        : Audio Coding 3
Идентификатор кодека                     : A_AC3
Продолжительность                        : 1 ч. 40 м.
Вид битрейта                             : Постоянный
Битрейт                                  : 192 Кбит/сек
Каналы                                   : 2 канала
Расположение каналов                     : Front: L R
Частота                                  : 48,0 КГц
Частота кадров                           : 31,250 кадров/сек (1536 SPF)
Битовая глубина                          : 16 бит
Метод сжатия                             : С потерями
Размер потока                            : 138 Мбайт (2%)
Заголовок                                : MVO (HDrezka Studio)
Язык                                     : Russian
ServiceKind                              : Complete Main
Default                                  : Да
Forced                                   : Нет

Аудио #2
Идентификатор                            : 3
Формат                                   : DTS
Формат/Информация                        : Digital Theater Systems
Идентификатор кодека                     : A_DTS
Продолжительность                        : 1 ч. 40 м.
Вид битрейта                             : Постоянный
Битрейт                                  : 1509 Кбит/сек
Каналы                                   : 6 каналов
Расположение каналов                     : Front: L C R, Side: L R, LFE
Частота                                  : 48,0 КГц
Частота кадров                           : 93,750 кадра/сек (512 SPF)
Битовая глубина                          : 24 бит
Метод сжатия                             : С потерями
Размер потока                            : 1,06 Гбайт (16%)
Язык                                     : English
Default                                  : Нет
Forced                                   : Нет

Текст
Идентификатор                            : 4
Формат                                   : UTF-8
Идентификатор кодека                     : S_TEXT/UTF8
Идентификатор кодека/Информация          : UTF-8 Plain Text
Продолжительность                        : 1 ч. 39 м.
Битрейт                                  : 93 бит/сек
ElementCount                             : 1982
Размер потока                            : 67,8 Кбайт (0%)
Язык                                     : English
Default                                  : Нет
Forced                                   : Нет

Меню
00:00:00.000                             : en:00:00:00.000
00:09:24.230                             : en:00:09:24.230
00:17:04.482                             : en:00:17:04.482
00:28:18.864                             : en:00:28:18.864
00:36:56.214                             : en:00:36:56.214
00:46:16.399                             : en:00:46:16.399
00:56:28.260                             : en:00:56:28.260
01:06:09.465                             : en:01:06:09.465
01:18:02.720                             : en:01:18:02.720
01:26:30.102                             : en:01:26:30.102
01:35:55.959                             : en:01:35:55.959



Скриншоты:
[+] Всего файлов в раздаче - 1:
Tag.2018.BDRip.1080p.mkv6.83 GB

Текущая раздача:
ДатаКомментарии    РазмерПиры
2018-08-25 U Ты водишь! / Tag (2018) BDRip 1080p | HDrezka Studio 1 К 6.83 GB ↑ 448 ↓ 331

Показать еще раздачи по запросу водишь:
2018-10-19 U Ты водишь! / Tag (2018) BDRip 1080p от селезень | Лицензия 12.60 GB ↑ 131 ↓ 68
2018-10-19 U Ты водишь! / Tag (2018) BDRip 720p от HELLYWOOD | Лицензия 1К3.87 GB ↑ 57 ↓ 13
2018-10-19 U Ты водишь! / Tag (2018) BDRip от MegaPeer | Лицензия 1.46 GB ↑ 115 ↓ 19
2018-09-09 U Ты водишь! / Tag (2018) HDRip от Scarabey | iTunes 1.40 GB ↑ 181 ↓ 33
2018-09-09 U Ты водишь! / Tag (2018) BDRip 720p от Scarabey | iTtunes 3.99 GB ↑ 115 ↓ 47
2018-09-08 U Ты водишь! / Tag (2018) BDRip от ExKinoRay | iTunes 1.42 GB ↑ 132 ↓ 46
2018-09-07 U Ты водишь! / Tag (2018) BDRip-AVC от HELLYWOOD | iTunes 2.13 GB ↑ 71 ↓ 78

Отзывы
78164nn78164
этот голос где только не слышал, теперь хд резка?
с такой озвучкой смешно не будет, спасибо за сэмпл

Зарегистрируйтесь чтобы добавить комментарий.
Обратная связь
Copyleft ©