↑↓Torrent.by
Поиск
Логин: Регистрация
Пароль: Восстановить пароль
Загрузка...

Решение о ликвидации (2018) BDRip | Лицензия

Скачать reshenie-o-likvidacii-2018-bdrip-licenziya.torrent
U Магнитная ссылка Размер: 1.45 GB Раздают: 249 Качают: 93 Добавлен: 2018-08-25 16:56:53
Решение о ликвидации (2018) BDRip | Лицензия

Название: Решение о ликвидации
Год выхода: 2018
Жанр: Военный, боевик, драма
Страна: Россия
Перевод: Не требуется
Продолжительность: 01:36:11
Режиссер: Александр Аравин
В ролях: Игорь Петренко, Алексей Вертков, Аюб Цингиев, Алексей Шевченков, Дмитрий Парастаев, Иван Шахназаров, Дагун Омаев, Сослан Фидаров, Кирилл Краснов, Шамиль Алханов и др.

О фильме: Особое задание спецгруппы ФСБ — ликвидация одержимого террориста Шамиля Базгаева. Охота продолжается уже долго, но жестокий лидер боевиков раз за разом ускользает. Однако, когда Базгаеву удается заполучить мощное оружие для осуществления своего самого страшного теракта, у оперативников больше нет права на ошибку. Для этих спецов преодоление себя, смертельный риск и подвиг — не что-то сверхъестественное, а каждодневный тяжелый труд. Но, кажется, даже для них эта операция — за пределами возможностей…

Файл
Формат: AVI
Качество: BDRip
Видео: Xvid, 720x304, ~1706 kbps, 23,976 fps
Звук: русский, AC3, 5.1 ch, 48 kHz, 448 kbps | Лицензия
Субтитры: русские (вшитые) на чеченскую речь



[+] MI
General
Полное имя                               : F:TorrentReshenieOlikvidaciiBDRip.avi
Формат                                   : AVI
Формат/Информация                        : Audio Video Interleave
Размер файла                             : 1.45 GiB
Продолжительность                        : 1 h 36 min
Общий поток                              : 2 163 kb/s
Библиотека кодирования                   : VirtualDub build 35491/release

Video
Идентификатор                            : 0
Формат                                   : MPEG-4 Visual
Профиль формата                          : Advanced Simple@L5
Настройки формата                        : BVOP2 / Custom Matrix
Параметр BVOP формата                    : 2
Параметр QPel формата                    : No
Параметр GMC формата                     : No warppoints
Параметр матрицы формата                 : Custom
Идентификатор кодека                     : XVID
Идентификатор кодека/Подсказка           : XviD
Продолжительность                        : 1 h 36 min
Битрейт                                  : 1 706 kb/s
Ширина                                   : 720 pixels
Высота                                   : 304 pixels
Соотношение сторон                       : 2.35:1
Частота кадров                           : 23.976 (24000/1001) FPS
Цветовое пространство                    : YUV
Субдискретизация насыщенности            : 4:2:0
Битовая глубина                          : 8 bits
Тип развёртки                            : Progressive
Метод сжатия                             : Lossy
Бит/(Пиксели*Кадры)                      : 0.325
Размер потока                            : 1.15 GiB (79%)
Библиотека кодирования                   : XviD 67

Audio
Идентификатор                            : 1
Формат                                   : AC-3
Формат/Информация                        : Audio Coding 3
Идентификатор кодека                     : 2000
Продолжительность                        : 1 h 36 min
Вид битрейта                             : Constant
Битрейт                                  : 448 kb/s
Каналы                                   : 6 channels
Расположение каналов                     : Front: L C R, Side: L R, LFE
Частота                                  : 48.0 kHz
Частота кадров                           : 31.250 FPS (1536 SPF)
Битовая глубина                          : 16 bits
Метод сжатия                             : Lossy
Размер потока                            : 308 MiB (21%)
Выравнивание                             : Aligned on interleaves
Продолжительность промежутка             : 42  ms (1.00 video frame)
Время предзагрузки промежутка            : 512  ms




Скриншоты:
[+] Всего файлов в раздаче - 1:
ReshenieOlikvidaciiBDRip.avi1.45 GB

Текущая раздача:
ДатаКомментарии    РазмерПиры
2018-08-25 U Решение о ликвидации (2018) BDRip | Лицензия 1.45 GB ↑ 249 ↓ 93

Показать еще раздачи по запросу решение:
2018-09-05 U Соломоново решение [01-04 из 04] (2018) WEB-DLRip от Files-x 2.35 GB ↑ 55 ↓ 39
2018-08-27 U Решение о ликвидации (2018) BDRemux 1080p от OlLanDGroup | Лицензия 19.37 GB ↑ 40 ↓ 25
2018-08-27 U Решение о ликвидации (2018) HDRip от GeneralFilm | Лицензия 745.04 MB ↑ 57 ↓ 13
2018-08-27 U Решение о ликвидации (2018) BDRip-AVC от OlLanDGroup | Лицензия 1.46 GB ↑ 98 ↓ 28
2018-08-26 U Решение о ликвидации (2018) HDRip от MegaPeer | Лицензия 744.79 MB ↑ 87 ↓ 34
2018-08-26 U Решение о ликвидации (2018) BDRip от ExKinoRay | Лицензия 1.46 GB ↑ 46 ↓ 27
2018-08-26 U Решение о ликвидации (2018) BDRip-AVC | Лицензия 2.01 GB ↑ 60 ↓ 22

Отзывы
Зарегистрируйтесь чтобы добавить комментарий.
Обратная связь
Copyleft ©