↑↓Torrent.by
Поиск
Логин: Регистрация
Пароль: Восстановить пароль
Загрузка...

Решение о ликвидации (2018) BDRip 1080p | Лицензия

Скачать reshenie-o-likvidacii-2018-bdrip-1080p-licenziya.torrent
U Магнитная ссылка Размер: 7.75 GB Раздают: 179 Качают: 132 Добавлен: 2018-08-25 16:57:03
Решение о ликвидации (2018) BDRip 1080p | Лицензия

Название: Решение о ликвидации
Год выхода: 2018
Жанр: Военный, боевик, драма
Страна: Россия
Перевод: Не требуется
Продолжительность: 01:36:11
Режиссер: Александр Аравин
В ролях: Игорь Петренко, Алексей Вертков, Аюб Цингиев, Алексей Шевченков, Дмитрий Парастаев, Иван Шахназаров, Дагун Омаев, Сослан Фидаров, Кирилл Краснов, Шамиль Алханов и др.

О фильме: Особое задание спецгруппы ФСБ — ликвидация одержимого террориста Шамиля Базгаева. Охота продолжается уже долго, но жестокий лидер боевиков раз за разом ускользает. Однако, когда Базгаеву удается заполучить мощное оружие для осуществления своего самого страшного теракта, у оперативников больше нет права на ошибку. Для этих спецов преодоление себя, смертельный риск и подвиг — не что-то сверхъестественное, а каждодневный тяжелый труд. Но, кажется, даже для них эта операция — за пределами возможностей…

Файл
Качество: BDRip 1080p
Видео: MPEG-4 AVC, 1920x804, 10900 kbps, 23,976 fps
Звук: русский, AC3, 5.1 ch, 48 kHz, 640 kbps | Лицензия
Субтитры: русские (вшитые) на чеченскую речь



[+] MI
General
Уникальный идентификатор                 : 175448170375804443728802328909232690689 (0x83FE16A8084DE22BB2C834B49B175601)
Полное имя                               : F:TorrentReshenieOlikvidaciiBDRip1080p.mkv
Формат                                   : Matroska
Версия формата                           : Version 4 / Version 2
Размер файла                             : 7.75 GiB
Продолжительность                        : 1 h 36 min
Общий поток                              : 11.5 Mb/s
Дата кодирования                         : UTC 2018-08-25 09:05:28
Программа кодирования                    : mkvmerge v9.5.0 ('Quiet Fire') 64bit
Библиотека кодирования                   : libebml v1.3.4 + libmatroska v1.4.5

Video
Идентификатор                            : 1
Формат                                   : AVC
Формат/Информация                        : Advanced Video Codec
Профиль формата                          : High@L4.1
Настройки формата                        : CABAC / 5 Ref Frames
Параметр CABAC формата                   : Yes
Параметр RefFrames формата               : 5 frames
Идентификатор кодека                     : V_MPEG4/ISO/AVC
Продолжительность                        : 1 h 36 min
Битрейт                                  : 10.9 Mb/s
Ширина                                   : 1 920 pixels
Высота                                   : 804 pixels
Соотношение сторон                       : 2.40:1
Режим частоты кадров                     : Constant
Частота кадров                           : 23.976 (24000/1001) FPS
Цветовое пространство                    : YUV
Субдискретизация насыщенности            : 4:2:0
Битовая глубина                          : 8 bits
Тип развёртки                            : Progressive
Бит/(Пиксели*Кадры)                      : 0.295
Размер потока                            : 7.32 GiB (94%)
Библиотека кодирования                   : x264 core 155 r2901M 7d0ff22
Настройки программы                      : cabac=1 / ref=5 / deblock=1:-3:-3 / analyse=0x3:0x113 / me=umh / subme=11 / psy=1 / psy_rd=1.00:0.00 / mixed_ref=1 / me_range=48 / chroma_me=1 / trellis=2 / 8x8dct=1 / cqm=0 / deadzone=21,11 / fast_pskip=0 / chroma_qp_offset=-2 / threads=9 / lookahead_threads=2 / sliced_threads=0 / nr=0 / decimate=0 / interlaced=0 / bluray_compat=0 / constrained_intra=0 / bframes=12 / b_pyramid=2 / b_adapt=2 / b_bias=0 / direct=3 / weightb=1 / open_gop=0 / weightp=2 / keyint=240 / keyint_min=24 / scenecut=40 / intra_refresh=0 / rc_lookahead=120 / rc=2pass / mbtree=0 / bitrate=10900 / ratetol=1.0 / qcomp=0.70 / qpmin=0 / qpmax=69 / qpstep=4 / cplxblur=20.0 / qblur=0.5 / vbv_maxrate=50000 / vbv_bufsize=62500 / nal_hrd=none / filler=0 / ip_ratio=1.40 / pb_ratio=1.30 / aq=3:0.80
Default                                  : Yes
Forced                                   : No
Цветовой диапазон                        : Limited
Основные цвета                           : BT.709
Характеристики трансфера                 : BT.709
Коэффициенты матрицы                     : BT.709

Audio
Идентификатор                            : 2
Формат                                   : AC-3
Формат/Информация                        : Audio Coding 3
Идентификатор кодека                     : A_AC3
Продолжительность                        : 1 h 36 min
Вид битрейта                             : Constant
Битрейт                                  : 640 kb/s
Каналы                                   : 6 channels
Расположение каналов                     : Front: L C R, Side: L R, LFE
Частота                                  : 48.0 kHz
Частота кадров                           : 31.250 FPS (1536 SPF)
Битовая глубина                          : 16 bits
Метод сжатия                             : Lossy
Размер потока                            : 440 MiB (6%)
Язык                                     : Russian
Default                                  : Yes
Forced                                   : No

Menu
00:00:00.000                             : en:Chapter 1
00:10:03.686                             : en:Chapter 2
00:18:43.539                             : en:Chapter 3
00:27:10.587                             : en:Chapter 4
00:35:30.294                             : en:Chapter 5
00:44:10.356                             : en:Chapter 6
00:53:00.343                             : en:Chapter 7
01:03:31.182                             : en:Chapter 8
01:13:11.345                             : en:Chapter 9
01:22:21.353                             : en:Chapter 10




Скриншоты:
[+] Всего файлов в раздаче - 1:
ReshenieOlikvidaciiBDRip1080p.mkv7.75 GB

Текущая раздача:
ДатаКомментарии    РазмерПиры
2018-08-25 U Решение о ликвидации (2018) BDRip 1080p | Лицензия 7.75 GB ↑ 179 ↓ 132

Показать еще раздачи по запросу решение:
2018-09-05 U Соломоново решение [01-04 из 04] (2018) WEB-DLRip от Files-x 2.35 GB ↑ 55 ↓ 39
2018-08-27 U Решение о ликвидации (2018) BDRemux 1080p от OlLanDGroup | Лицензия 19.37 GB ↑ 50 ↓ 26
2018-08-27 U Решение о ликвидации (2018) HDRip от GeneralFilm | Лицензия 745.04 MB ↑ 65 ↓ 16
2018-08-27 U Решение о ликвидации (2018) BDRip-AVC от OlLanDGroup | Лицензия 1.46 GB ↑ 198 ↓ 30
2018-08-26 U Решение о ликвидации (2018) HDRip от MegaPeer | Лицензия 744.79 MB ↑ 100 ↓ 35
2018-08-26 U Решение о ликвидации (2018) BDRip от ExKinoRay | Лицензия 1.46 GB ↑ 67 ↓ 29
2018-08-26 U Решение о ликвидации (2018) BDRip-AVC | Лицензия 2.01 GB ↑ 71 ↓ 24

Отзывы
Зарегистрируйтесь чтобы добавить комментарий.
Обратная связь
Copyleft ©