↑↓Torrent.by
Поиск
Логин: Регистрация
Пароль: Восстановить пароль
Загрузка...

Эскобар / Loving Pablo (2017) BDRip 1080p | iTunes

Скачать eskobar-loving-pablo-2017-bdrip-1080p-itunes.torrent
U Магнитная ссылка Размер: 8.63 GB Раздают: 267 Качают: 104 Добавлен: 2018-08-25 20:40:27
Эскобар / Loving Pablo (2017) BDRip 1080p | iTunes

Эскобар / Loving Pablo

Страна: Испания  Болгария  США
Производство: B2Y Productions, Escobar Films
Год выпуска: 2017
Жанр:  биография, драма, криминал
Продолжительность: 01:46:00

Режиссер: Фернандо Леон Де Араноа
Авторы сценария: Фернандо Леон Де Араноа, Вирджиния Вальехо

В ролях: Хавьер Бардем, Пенелопа Крус, Питер Сарсгаард, Жульет Рестрепо, Оскар Хаэнада, Фреди Йэт, Рикардо Ниньо, Педро Кальво

Описание: История восхождения Пабло Эскобара — его стремительного пути к миллиардам, могуществу и непростительным преступлениям. Во всесильного наркобарона влюбляется журналистка, чьи мемуары положены в основу фильма...

Перевод: Профессиональный (полное дублирование) | iTunes
Субтитры: нет

Качество: BDRip 1080p
Формат: МКV
Видео кодек: AVC
Аудио кодек: АС3| DTS
Видео: 1920x804 (2.40:1), 24.000 fps, MPEG-4 AVC ~9 789 kbps avg
Аудио №1: 48.0 kHz, AC3 Dolby Digital, 3/2 (L,C,R,l,r) + LFE ch, ~384 kbps | RUS / iTunes
Аудио №2: 48.0 kHz, Digital Theater Systems, 3/2 (L,C,R,l,r) + LFE ch, ~1509 kbps | ENG

Дата премьеры (мир): 6 сентября 2017
Дата премьеры (РФ): 14 июня 2018, «Каскад фильм»

Релиз:


[+] Media Info
General
Unique ID                   : 196965245283881547217842500485007067212 (0x942E205B114A7BCCBFF0FD0A9094C84C)
Complete name               : Loving.Pablo.2018.bdriP.108Op.werecut.PROD.mkv
Format                      : Matroska
Format version              : Version 2
File size                   : 8.63 GiB
Duration                    : 1 h 46 min
Overall bit rate            : 11.7 Mb/s
Movie name                  : Loving Pablo 2018 OT werecut PROD.
Encoded date                : UTC 2018-08-25 07:42:13
Writing application         : mkvmerge v2.9.9 ('Tutu') built on Nov 25 2009 21:13:32
Writing library             : libebml v0.7.9 + libmatroska v0.8.1

Video
ID                          : 1
Format                      : AVC
Format/Info                 : Advanced Video Codec
Format profile              : High@L4.1
Format settings             : CABAC / 5 Ref Frames
Format settings, CABAC      : Yes
Format settings, ReFrames   : 5 frames
Codec ID                    : V_MPEG4/ISO/AVC
Duration                    : 1 h 46 min
Bit rate                    : 9 789 kb/s
Width                       : 1 920 pixels
Height                      : 804 pixels
Display aspect ratio        : 2.40:1
Frame rate mode             : Constant
Frame rate                  : 24.000 FPS
Color space                 : YUV
Chroma subsampling          : 4:2:0
Bit depth                   : 8 bits
Scan type                   : Progressive
Bits/(Pixel*Frame)          : 0.264
Stream size                 : 7.06 GiB (82%)
Writing library             : x264 core 148 r2705 3f5ed56
Encoding settings           : cabac=1 / ref=5 / deblock=1:-3:-3 / analyse=0x3:0x133 / me=umh / subme=10 / psy=1 / psy_rd=1.17:0.04 / mixed_ref=1 / me_range=24 / chroma_me=1 / trellis=2 / 8x8dct=1 / cqm=0 / deadzone=21,11 / fast_pskip=0 / chroma_qp_offset=-3 / threads=12 / lookahead_threads=2 / sliced_threads=0 / nr=0 / decimate=0 / interlaced=0 / bluray_compat=0 / constrained_intra=0 / bframes=8 / b_pyramid=2 / b_adapt=2 / b_bias=0 / direct=3 / weightb=1 / open_gop=0 / weightp=2 / keyint=240 / keyint_min=24 / scenecut=40 / intra_refresh=0 / rc_lookahead=50 / rc=2pass / mbtree=0 / bitrate=9789 / ratetol=1.0 / qcomp=0.60 / qpmin=0 / qpmax=51 / qpstep=4 / cplxblur=20.0 / qblur=0.5 / vbv_maxrate=50000 / vbv_bufsize=62500 / nal_hrd=none / filler=0 / ip_ratio=1.40 / pb_ratio=1.30 / aq=3:0.80
Language                    : English
Default                     : No
Forced                      : No

Audio #1
ID                          : 2
Format                      : AC-3
Format/Info                 : Audio Coding 3
Commercial name             : Dolby Digital
Codec ID                    : A_AC3
Duration                    : 1 h 46 min
Bit rate mode               : Constant
Bit rate                    : 384 kb/s
Channel(s)                  : 6 channels
Channel positions           : Front: L C R, Side: L R, LFE
Sampling rate               : 48.0 kHz
Frame rate                  : 31.250 FPS (1536 SPF)
Bit depth                   : 16 bits
Compression mode            : Lossy
Stream size                 : 291 MiB (3%)
Language                    : Russian
Service kind                : Complete Main
Default                     : Yes
Forced                      : Yes

Audio #2
ID                          : 3
Format                      : DTS
Format/Info                 : Digital Theater Systems
Codec ID                    : A_DTS
Duration                    : 1 h 46 min
Bit rate mode               : Constant
Bit rate                    : 1 509 kb/s
Channel(s)                  : 6 channels
Channel positions           : Front: L C R, Side: L R, LFE
Sampling rate               : 48.0 kHz
Frame rate                  : 93.750 FPS (512 SPF)
Bit depth                   : 24 bits
Compression mode            : Lossy
Stream size                 : 1.12 GiB (13%)
Language                    : English
Default                     : No
Forced                      : No

Menu
00:00:00.000                : en:00:00:00.000
00:04:04.833                : en:00:04:04.833
00:09:48.833                : en:00:09:48.833
00:15:14.292                : en:00:15:14.292
00:20:05.167                : en:00:20:05.167
00:26:28.500                : en:00:26:28.500
00:31:45.917                : en:00:31:45.917
00:36:37.625                : en:00:36:37.625
00:41:12.167                : en:00:41:12.167
00:45:45.125                : en:00:45:45.125
00:51:45.417                : en:00:51:45.417
00:57:11.375                : en:00:57:11.375
01:02:18.958                : en:01:02:18.958
01:07:56.625                : en:01:07:56.625
01:13:30.000                : en:01:13:30.000
01:17:47.542                : en:01:17:47.542
01:22:54.292                : en:01:22:54.292
01:28:09.208                : en:01:28:09.208
01:33:39.500                : en:01:33:39.500
01:39:44.250                : en:01:39:44.250



Скриншоты:
[+] Всего файлов в раздаче - 1:
Loving.Pablo.2018.bdriP.108Op.werecut.PROD.mkv8.63 GB

Текущая раздача:
ДатаКомментарии    РазмерПиры
2018-08-25 U Эскобар / Loving Pablo (2017) BDRip 1080p | iTunes 8.63 GB ↑ 267 ↓ 104

Показать еще раздачи по запросу эскобар:
2018-09-05 U Эскобар / Loving Pablo (2017) BDRip от MegaPeer | Лицензия 1.46 GB ↑ 100 ↓ 10
2018-08-26 U Эскобар / Loving Pablo (2017) BDRemux 1080p | iTunes 19.35 GB ↑ 52 ↓ 32
2018-08-26 U Эскобар / Loving Pablo (2017) BDRip 720p | iTunes 1К4.62 GB ↑ 66 ↓ 29
2018-08-25 U Эскобар / Loving Pablo (2017) BDRip от MegaPeer | iTunes 1.42 GB ↑ 158 ↓ 98
2018-07-11 U Эскобар / Loving Pablo (2017) WEB-DLRip-AVC от ExKinoRay | iTunes 745.95 MB ↑ 38 ↓ 23
2018-07-10 U Эскобар / Loving Pablo (2017) WEB-DLRip от Scarabey | iTunes 1.45 GB ↑ 90 ↓ 66
2018-07-10 U Эскобар / Loving Pablo (2017) WEB-DL 1080p | iTunes 3.62 GB ↑ 509 ↓ 147

Отзывы
Зарегистрируйтесь чтобы добавить комментарий.
Обратная связь
Copyleft ©