↑↓Torrent.by
Поиск
Логин: Регистрация
Пароль: Восстановить пароль
Загрузка...

Замуж за Бузову [01] (2018) HDTV 1080p от Generalfilm

Скачать zamuzh-za-buzovu-01-2018-hdtv-1080p-ot-generalfilm.torrent
U Магнитная ссылка Размер: 4.73 GB Раздают: 71 Качают: 23 Добавлен: 2018-08-27 21:25:08
Замуж за Бузову [01] (2018) HDTV 1080p от Generalfilm

Название: Замуж за Бузову
Год выпуска: 2018
Страна: Россия
Жанр: Реалити-шоу
Перевод: Не требуется [Русский]
Продолжительность: 01:33:39 Серия
Режиссер: Дени́с Ларионов
Ведущая:

Описание:
Замуж за Бузову» — это уникальное реалити-шоу о том, как Ольга Бузова ищет мужчину, с которым сможет создать семью. Аналогов новому проекту ТНТ нет, так же, как нет второй Ольги Бузовой! Ольга Бузова — self-made woman. Ее любят миллионы простых зрителей, о ней говорят топ-звезды, каждое событие ее жизни смакуется прессой. Она добилась невероятных успехов во многих областях и все, к чему она прикасается — становится индустрией. Она помогает строить любовь другим, но сама так и не обрела личное счастье. «Замуж за Бузову» — это последний шанс доказать Оле, что настоящие мужчины все-таки существуют, и один из них сможет сделать ее по-настоящему счастливой

Качество: HDTV 1080p  Запись с
Формат: MKV
Видео: AVC, 1920x1080 (16:9), 7050 kbps, 25 fps, 0,136 bpp
Аудио: AC3 / 2.0 / 48 kHz / 192 kbps /

Релиз:

[+] ОтчетМедиаИнфо

General
Unique ID : 209723353037185014085345535971896724651 (0x9DC73FA1F76593B695116B729FFA0CAB)
Complete name : E:Запись с твZamuzh za Buzovu 2018.HDTV 1080p.R.G.GeneralfilmZamuzh za Buzovu.s01.e01.2018.HDTV 1080p.by.White Smoke.R.G.Generalfilm.mkv
Format : Matroska
Format version : Version 2
File size : 4.73 GiB
Duration : 1 h 33 min
Overall bit rate mode : Constant
Overall bit rate : 7 229 kb/s
Movie name : Zamuzh za Buzovu.s01.e01.2018.HDTV 1080p.by.White Smoke.R.G.Generalfilm.mkv
Encoded date : UTC 2018-08-27 00:33:15
Writing application : mkvmerge v7.6.0 ('Garden of Dreams') 32bit built on Feb 11 2015 00:18:47
Writing library : libebml v1.3.1 + libmatroska v1.4.2
Cover : Yes
Attachments : cover.jpg

Video
ID : 1
Format : AVC
Format/Info : Advanced Video Codec
Format profile : High@L4.1
Format settings, CABAC : Yes
Format settings, ReFrames : 3 frames
Codec ID : V_MPEG4/ISO/AVC
Duration : 1 h 33 min
Bit rate mode : Constant
Bit rate : 7 051 kb/s
Width : 1 920 pixels
Height : 1 080 pixels
Display aspect ratio : 16:9
Frame rate mode : Constant
Frame rate : 25.000 FPS
Standard : PAL
Color space : YUV
Chroma subsampling : 4:2:0
Bit depth : 8 bits
Scan type : Progressive
Bits/(Pixel*Frame) : 0.136
Stream size : 4.51 GiB (95%)
Default : Yes
Forced : No
Color range : Limited
Color primaries : BT.709
Transfer characteristics : BT.709
Matrix coefficients : BT.709

Audio
ID : 2
Format : AC-3
Format/Info : Audio Coding 3
Mode extension : CM (complete main)
Format settings, Endianness : Big
Codec ID : A_AC3
Duration : 1 h 33 min
Bit rate mode : Constant
Bit rate : 192 kb/s
Channel(s) : 2 channels
Channel positions : Front: L R
Sampling rate : 48.0 kHz
Frame rate : 31.250 FPS (1536 spf)
Compression mode : Lossy
Stream size : 129 MiB (3%)
Default : Yes
Forced : No



Скриншоты:
[+] Всего файлов в раздаче - 1:
Zamuzh za Buzovu.s01.e01.2018.HDTV 1080p.by.White Smoke.R.G.Generalfilm.mkv4.73 GB

Текущая раздача:
ДатаКомментарии    РазмерПиры
2018-08-27 U Замуж за Бузову [01] (2018) HDTV 1080p от Generalfilm 4.73 GB ↑ 71 ↓ 23

Показать еще раздачи по запросу замуж:
2018-09-04 U Замуж за Бузову [01-02] (2018) WEBRip от Files-x 2.59 GB ↑ 60 ↓ 81
2018-08-27 U Замуж за Бузову [01] (2018) WEBRip от Files-x 1.30 GB ↑ 44 ↓ 9
2018-08-27 U Замуж за Бузову [01] (2018) WEBRip 720p от Files-x 2.46 GB ↑ 45 ↓ 26
2017-07-22 U Опять замуж (2016) WEB-DLRip от Files-x 1.37 GB ↑ 224 ↓ 103
2017-06-27 U Замуж на 2 дня / Un plan parfait (2012) HDRip-AVC от ImperiaFilm | D 742.15 MB ↑ 93 ↓ 25
2017-01-03 U Замуж в Новый год (2016) DVB от Files-x 2.73 GB ↑ 322 ↓ 63
2017-01-03 U Замуж в Новый год (2016) SATRip от GeneralFilm 1К745.77 MB ↑ 398 ↓ 109

Отзывы
Зарегистрируйтесь чтобы добавить комментарий.
Обратная связь
Copyleft ©