↑↓Torrent.by
Поиск
Логин: Регистрация
Пароль: Восстановить пароль
Загрузка...

«Мерседес» уходит от погони (1980) DVDRip-AVC от KORSAR

Скачать mersedes-uhodit-ot-pogoni-1980-dvdrip-avc-korsar.torrent
U Магнитная ссылка Размер: 1.52 GB Раздают: 25 Качают: 7 Добавлен: 2018-08-28 05:52:29
«Мерседес» уходит от погони (1980) DVDRip-AVC от KORSAR

Название: «Мерседес» уходит от погони
Год выпуска: 1980
Жанр:  Военный
Режиссёр: Юрий Ляшенко
В ролях: Герман Юшко, Михаил Голубович, Анатолий Рудаков, Игорь Ливанов, Анатолий Барчук, Борис Юрченко, Вилорий Пащенко, Алексей Горячев, Виталий Васильев, Юрий Моцарев, Хейно Мандри, Рейн Коткас, Арнис Лицитис

Описание: Советским разведчикам дано задание отправиться в тыл врага на рискованную боевую операцию, от успешного выполнения которой зависит судьба фронта. Переодевшись в немецкую форму, они садятся на трофейный "Мерседес" и пересекают линию фронта. Их путь идёт по дорогам, патрулируемым фашистами, где каждый неверный шаг может привести к роковым последствиям.

Выпущено: СССР, Киностудия им. А. Довженко
Продолжительность: 01:13:50
Перевод: Не требуется

Файл
Кодек: х264
Качество: DVDRip-AVC
Видео: MPEG-4 AVC, 720x422@892x422, 2552 Кбит/с, 25.000 fps
Аудио: AC3, 6 ch, 384 Кбит/с
Субтитры: Нет
Навигация по главам: Есть

Релиз:
[+] MediaInfo
x264 [info]: frame I:620 Avg QP:15.97  size: 70306
x264 [info]: frame P:30245 Avg QP:18.55 size: 30047
x264 [info]: frame B:79898 Avg QP:21.25 size: 5770

=====================================

Общее
Уникальный идентификатор                 : 221198956271423567527156011639333130203 (0xA6695E8E0D2E8777A05BCF49B1830FDB)
Полное имя                               : Мерседес уходит от погони.1980.DVDRip-AVC.KORSAR.mkv
Формат                                   : Matroska
Версия формата                           : Version 2
Размер файла                             : 1,52 Гбайт
Продолжительность                        : 1 ч. 13 м.
Общий поток                              : 2938 Кбит/сек
Дата кодирования                         : UTC 2017-05-10 06:56:41
Программа кодирования                    : mkvmerge v5.8.0 ('No Sleep / Pillow') built on Sep  2 2012 15:37:04
Библиотека кодирования                   : libebml v1.2.3 + libmatroska v1.3.0

Видео
Идентификатор                            : 1
Формат                                   : AVC
Формат/Информация                        : Advanced Video Codec
Профиль формата                          : High@L4.1
Параметр CABAC формата                   : Да
Параметр RefFrames формата               : 13 кадров
Идентификатор кодека                     : V_MPEG4/ISO/AVC
Продолжительность                        : 1 ч. 13 м.
Битрейт                                  : 2552 Кбит/сек
Ширина                                   : 720 пикселей
Высота                                   : 422 пикселя
Соотношение сторон                       : 2,114
Режим частоты кадров                     : Постоянный
Частота кадров                           : 25,000 кадров/сек
Цветовое пространство                    : YUV
Субдискретизация насыщенности            : 4:2:0
Битовая глубина                          : 8 бит
Тип развёртки                            : Прогрессивная
Бит/(Пиксели*Кадры)                      : 0.336
Размер потока                            : 1,29 Гбайт (85%)
Заголовок                                : Мерседес уходит от погони.1980.DVDRip-AVC.KORSAR
Библиотека кодирования                   : x264 core 148 r2744kMod b97ae06
Настройки программы                      : cabac=1 / ref=13 / deblock=1:-2:-1 / analyse=0x3:0x133 / me=umh / subme=10 / psy=1 / fade_compensate=0.00 / psy_rd=1.05:0.10 / mixed_ref=1 / me_range=36 / chroma_me=1 / trellis=2 / 8x8dct=1 / cqm=0 / deadzone=21,11 / fast_pskip=0 / chroma_qp_offset=-3 / threads=12 / lookahead_threads=3 / sliced_threads=0 / nr=0 / decimate=0 / interlaced=0 / bluray_compat=0 / constrained_intra=0 / bframes=10 / b_pyramid=2 / b_adapt=2 / b_bias=0 / direct=3 / weightb=1 / open_gop=0 / weightp=2 / keyint=250 / keyint_min=25 / scenecut=40 / intra_refresh=0 / rc_lookahead=40 / rc=2pass / mbtree=1 / bitrate=2552 / ratetol=1.0 / qcomp=0.63 / qpmin=0 / qpmax=39 / qpstep=4 / cplxblur=20.0 / qblur=0.5 / ip_ratio=1.25 / aq=2:1.00
Язык                                     : English
Default                                  : Да
Forced                                   : Нет
Цветовой диапазон                        : Limited
Основные цвета                           : BT.601 PAL
Характеристики трансфера                 : BT.470 System B, BT.470 System G
Коэффициенты матрицы                     : BT.601

Аудио
Идентификатор                            : 2
Формат                                   : AC-3
Формат/Информация                        : Audio Coding 3
Параметр Endianness формата              : Big
Идентификатор кодека                     : A_AC3
Продолжительность                        : 1 ч. 13 м.
Вид битрейта                             : Постоянный
Битрейт                                  : 384 Кбит/сек
Каналы                                   : 6 каналов
Расположение каналов                     : Front: L C R, Side: L R, LFE
Частота                                  : 48,0 КГц
Частота кадров                           : 31,250 кадров/сек (1536 SPF)
Битовая глубина                          : 16 бит
Метод сжатия                             : С потерями
Размер потока                            : 203 Мбайт (13%)
Язык                                     : Russian
Default                                  : Да
Forced                                   : Нет

Меню
00:00:00.000                             : en:Chapter 1
00:06:30.840                             : en:Chapter 2
00:12:08.280                             : en:Chapter 3
00:17:05.520                             : en:Chapter 4
00:23:27.720                             : en:Chapter 5
00:29:55.920                             : en:Chapter 6
00:36:20.520                             : en:Chapter 7
00:43:39.240                             : en:Chapter 8
00:49:33.480                             : en:Chapter 9
00:57:43.560                             : en:Chapter 10
01:03:41.640                             : en:Chapter 11
01:09:11.040                             : en:Chapter 12
01:13:49.800                             : en:Chapter 13



Скриншоты:
[+] Всего файлов в раздаче - 1:
Мерседес уходит от погони_1980-DVDRip-AVC.mkv1.52 GB

Текущая раздача:
ДатаКомментарии    РазмерПиры
2018-08-28 U «Мерседес» уходит от погони (1980) DVDRip-AVC от KORSAR 1.52 GB ↑ 25 ↓ 7

Показать еще раздачи по запросу мерседес:
2018-09-14 U Мистер Мерседес / Mr. Mercedes [02x01-04 из 10] (2018) WEB-DLRip | LostFilm 2.68 GB ↑ 78 ↓ 51
2018-08-24 U Мистер Мерседес / Mr. Mercedes [02x01-02 из 10] (2018) WEBRip 720p | ColdFilm 1К2.85 GB ↑ 30 ↓ 32
2018-08-23 U Мистер Мерседес / Mr. Mercedes [02x01 из 10] (2018) WEBRip | ColdFilm 586.96 MB ↑ 68 ↓ 12
2018-08-23 U Мистер Мерседес / Mr. Mercedes [02x01 из 10] (2018) WEBRip 720p | ColdFilm 1.51 GB ↑ 83 ↓ 12
2017-09-10 U Мистер Мерседес / Mr. Mercedes [01x01-05 из 10] (2017) WEB-DL 720p | LostFilm 7.13 GB ↑ 82 ↓ 120
2017-09-02 U Мистер Мерседес / Сезон: 1 / Серии: 1-4 (10) [2017 WEB-DLRip] MVO (AlexFilm) + Original 2.50 GB ↑ 28 ↓ 41
2017-08-26 U Мистер Мерседес / Сезон: 1 / Серии: 1-3 (10) [2017, WEB-DL 720p] 4.36 GB ↑ 22 ↓ 31

Отзывы
Зарегистрируйтесь чтобы добавить комментарий.
Обратная связь
Copyleft ©