↑↓Torrent.by
Поиск
Логин: Регистрация
Пароль: Восстановить пароль
Загрузка...

Пчёлка Майя и Кубок мёда / Maya the Bee: The Honey Games (2018) BDRip | iTunes

Скачать pchelka-mayya-i-kubok-meda-maya-the-bee-honey-games-2018-bdrip-itunes.torrent
U Магнитная ссылка Размер: 1.45 GB Раздают: 92 Качают: 16 Добавлен: 2018-08-28 08:16:30
Пчёлка Майя и Кубок мёда / Maya the Bee: The Honey Games (2018) BDRip | iTunes

Название: Пчёлка Майя и Кубок мёда
Оригинальное название: Maya the Bee: The Honey Games
Год выхода: 2018
Жанр: Мультфильм, комедия, приключения, семейный
Страна: Германия, Австралия
Перевод: Дублированный | iTunes
Продолжительность: 01:24:48
Режиссеры: Ноэль Клири, Серджо Делфино, Алекс Стадерманн
В ролях: Коко Джек Гиллис, Бенсон Джек Энтони, Ричард Роксбург, Джастин Кларк, Марни МакКуин, Линда Нго, Кэм Ральф, Джордан Хэа, Сэм Хафт, Питер МакАллум и др.
Роли дублировали: Элиза Мартиросова, Ирина Киреева, Данил Щебланов, Ольга Кузнецова, Лина Иванова и др.

О фильме:
Пчёлка Майя с нетерпением ждёт начала спортивных соревнований между ульями за Кубок мёда. Однако Императрица не только не допускает её улей до игр, но и требует, чтобы они отдали половину своего урожая мёда для питания других спортсменов. Такое положение дел не устраивает пчёлку, и она летит к Императрице, чтобы добиться включения её команды в список участников.

Файл
Формат: AVI
Качество: BDRip
Видео: Xvid, 704x384, ~2060 kbps, 23,976 fps
Звук: русский, AC3, 5.1 ch, 48 kHz, 384 kbps | iTunes
Субтитры: нет


[+] MI
General
Полное имя                               : F:TorrentMayatheBeeTheHoneyGamesBDRip.avi
Формат                                   : AVI
Формат/Информация                        : Audio Video Interleave
Профиль формата                          : OpenDML
Размер файла                             : 1.45 GiB
Продолжительность                        : 1 h 24 min
Общий поток                              : 2 456 kb/s
Программа кодирования                    : XviD4PSP 6.0 / 54.27.101

Video
Идентификатор                            : 0
Формат                                   : MPEG-4 Visual
Профиль формата                          : Advanced Simple@L5
Настройки формата                        : BVOP2 / Custom Matrix
Параметр BVOP формата                    : 2
Параметр QPel формата                    : No
Параметр GMC формата                     : No warppoints
Параметр матрицы формата                 : Custom
Идентификатор кодека                     : XVID
Идентификатор кодека/Подсказка           : XviD
Продолжительность                        : 1 h 24 min
Битрейт                                  : 2 060 kb/s
Ширина                                   : 704 pixels
Высота                                   : 384 pixels
Соотношение сторон                       : 1.85:1
Частота кадров                           : 23.976 (23976/1000) FPS
Цветовое пространство                    : YUV
Субдискретизация насыщенности            : 4:2:0
Битовая глубина                          : 8 bits
Тип развёртки                            : Progressive
Метод сжатия                             : Lossy
Бит/(Пиксели*Кадры)                      : 0.318
Размер потока                            : 1.22 GiB (84%)
Библиотека кодирования                   : XviD 67

Audio
Идентификатор                            : 1
Формат                                   : AC-3
Формат/Информация                        : Audio Coding 3
Идентификатор кодека                     : 2000
Продолжительность                        : 1 h 24 min
Вид битрейта                             : Constant
Битрейт                                  : 384 kb/s
Каналы                                   : 6 channels
Расположение каналов                     : Front: L C R, Side: L R, LFE
Частота                                  : 48.0 kHz
Частота кадров                           : 31.250 FPS (1536 SPF)
Битовая глубина                          : 16 bits
Метод сжатия                             : Lossy
Размер потока                            : 233 MiB (16%)
Выравнивание                             : Aligned on interleaves
Продолжительность промежутка             : 32  ms (0.77 video frame)




Скриншоты:
[+] Всего файлов в раздаче - 1:
MayatheBeeTheHoneyGamesBDRip.avi1.45 GB

Текущая раздача:
ДатаКомментарии    РазмерПиры
2018-08-28 U Пчёлка Майя и Кубок мёда / Maya the Bee: The Honey Games (2018) BDRip | iTunes 1.45 GB ↑ 92 ↓ 16

Показать еще раздачи по запросу майя:
2018-08-31 U Пчёлка Майя и Кубок мёда / Maya the Bee: The Honey Games (2018) BDRip от ExKinoRay | iTunes 1.42 GB ↑ 47 ↓ 21
2018-08-29 U Пчёлка Майя и Кубок мёда / Maya the Bee: The Honey Games (2018) BDRip от MegaPeer | iTunes 1.42 GB ↑ 113 ↓ 3
2018-08-28 U Пчёлка Майя и Кубок мёда / Maya the Bee: The Honey Games (2018) BDRip 720p | iTunes 3.27 GB ↑ 63 ↓ 20
2018-08-28 U Пчёлка Майя и Кубок мёда / Maya the Bee: The Honey Games (2018) BDRip 1080p | iTunes 5.94 GB ↑ 25 ↓ 13
2018-04-26 U National Geographic: Затерянные сокровища змеиных царей майя / Lost Treasures of the Maya (2017) HDTVRip от Kaztorrents | P1 705.47 MB ↑ 93 ↓ 19
2018-02-06 U Календарь майя. Откровения / Mayan Revelations: Decoding Baqtun (2015) HDTVRip от Kaztorrents | P2 741.58 MB ↑ 48 ↓ 5
2016-03-05 U Майя [01-12 из 12] (2016) WEB-DLRip от Files-x 1К7.03 GB ↑ 110 ↓ 155

Отзывы
Зарегистрируйтесь чтобы добавить комментарий.
Обратная связь
Copyleft ©