↑↓Torrent.by
Поиск
Логин: Регистрация
Пароль: Восстановить пароль
Загрузка...

8 подруг Оушена / Ocean's Eight (2018) BDRip 720p от ExKinoRay | iTunes

Скачать 8-podrug-oushena-ocean-s-eight-2018-bdrip-720p-ot-exkinoray-itunes.torrent
U Магнитная ссылка Размер: 5.32 GB Раздают: 125 Качают: 144 Добавлен: 2018-08-28 15:06:08
8 подруг Оушена / Ocean's Eight (2018) BDRip 720p от ExKinoRay | iTunes

Название: 8 подруг Оушена
Оригинальное название: Ocean's Eight
Год выхода: 2018
Жанр: Боевик, триллер, комедия, криминал
Режиссер: Гэри Росс
В ролях: Сандра Буллок, Кейт Бланшетт, Гриффин Данн, Дирдри Гудвин, Энн Хэтэуэй, Минди Кейлинг, Рианна, Даниэлла Раббани, Брайан Дж. Картер, Сара Полсон, Аквафина

О фильме: Пять лет, восемь месяцев, 12 дней… и далее. Именно столько Дебби Оушен разрабатывала план величайшего ограбления своей жизни. Она точно знает, что для него потребуется, — команда лучших в своем деле, начиная с ее давней сообщницы Лу Миллер. Вместе они собирают команду уникальных специалистов. Их цель — неотразимые 150 миллионов долларов в бриллиантах — в бриллиантах на шее всемирно известной актрисы Дафны Клюгер, к которой будет приковано всеобщее внимание на главном событии года — бале в Метрополитен-музее. Сам план бесподобен, но и реализация должна быть безупречна, если они хотят войти и выйти с драгоценностями в руках. Прямо у всех на виду.

Страна: США
Студия: Rahway Road Productions, Smoke House
Продолжительность: 01:50:09
Перевод: Дублированный | iTunes

Качество: BDRip 720p
Видео: MPEG-4 AVC, 1280x536, 5726 Kbit/s, 23.976 fps
Звук:
Аудио #01: 48 kHz, AC3, 5.1, 384 Kbps | iTunes | RUS |
Аудио #02: 48 kHz, AC3, 2.0, 160 Kbps | iTunes | UKR |
Аудио #03: 48 kHz, AC3, 5.1, 640 Kbps | Оригинал |  ENG |
Субтитры: Русские (forced,full), украинские (forced), английские

Релиз:

Автор релиза:


[+] MI
General
Unique ID                   : 299174542715035558936711171473464650957 (0xE112EBC95D3F0E9655FDE9DFABA06CCD)
Complete name               : D:Video111Ocean's.Eight.2018.BDRip.720p.ExKinoRay.mkv
Format                      : Matroska
Format version              : Version 4 / Version 2
File size                   : 5.32 GiB
Duration                    : 1 h 50 min
Overall bit rate            : 6 913 kb/s
Movie name                  : Ocean's Eight 2018 from ExKinoRay
Encoded date                : UTC 2018-08-28 08:34:14
Writing application         : mkvmerge v23.0.0 ('The Bride Said No') 64-bit
Writing library             : libebml v1.3.6 + libmatroska v1.4.9

Video
ID                          : 1
Format                      : AVC
Format/Info                 : Advanced Video Codec
Format profile              : High@L4.1
Format settings             : CABAC / 9 Ref Frames
Format settings, CABAC      : Yes
Format settings, ReFrames   : 9 frames
Codec ID                    : V_MPEG4/ISO/AVC
Duration                    : 1 h 50 min
Bit rate                    : 5 726 kb/s
Width                       : 1 280 pixels
Height                      : 536 pixels
Display aspect ratio        : 2.40:1
Frame rate mode             : Constant
Frame rate                  : 23.976 (24000/1001) FPS
Color space                 : YUV
Chroma subsampling          : 4:2:0
Bit depth                   : 8 bits
Scan type                   : Progressive
Bits/(Pixel*Frame)          : 0.348
Stream size                 : 4.41 GiB (83%)
Writing library             : x264 core 155 r2867+74 66b5600 t_mod_Custom_2 [8-bit@all X86_64]
Encoding settings           : cabac=1 / ref=9 / deblock=1:-3:-3 / analyse=0x3:0x113 / me=umh / subme=10 / psy=1 / fade_compensate=0.00 / psy_rd=0.90:0.10 / mixed_ref=1 / me_range=32 / chroma_me=1 / trellis=2 / 8x8dct=1 / cqm=0 / deadzone=21,11 / fast_pskip=0 / chroma_qp_offset=-2 / threads=17 / lookahead_threads=2 / sliced_threads=0 / nr=0 / decimate=1 / interlaced=0 / bluray_compat=0 / constrained_intra=0 / fgo=0 / bframes=8 / b_pyramid=2 / b_adapt=2 / b_bias=0 / direct=3 / weightb=1 / open_gop=0 / weightp=2 / keyint=250 / keyint_min=23 / scenecut=40 / intra_refresh=0 / rc_lookahead=40 / rc=crf / mbtree=0 / crf=18.0000 / qcomp=0.70 / qpmin=0:0:0 / qpmax=69:69:69 / qpstep=4 / vbv_maxrate=30000 / vbv_bufsize=30000 / crf_max=0.0 / nal_hrd=none / filler=0 / ip_ratio=1.40 / pb_ratio=1.30 / aq=3:0.90 / aq-sensitivity=10.00 / aq-factor=1.00:1.00:1.00 / aq2=0 / aq3=2:[0.50:0.50]:[0.50:0.50]:[0.50:0.50]:[0.50:0.50] / aq3-sensitivity=10.00 / aq3-factor=[1.00:1.00]:[1.00:1.00]:[1.00:1.00] / aq3-boundary=192:64:24
Language                    : English
Default                     : Yes
Forced                      : No
Color range                 : Limited
Matrix coefficients         : BT.709

Audio #1
ID                          : 2
Format                      : AC-3
Format/Info                 : Audio Coding 3
Commercial name             : Dolby Digital
Codec ID                    : A_AC3
Duration                    : 1 h 50 min
Bit rate mode               : Constant
Bit rate                    : 384 kb/s
Channel(s)                  : 6 channels
Channel positions           : Front: L C R, Side: L R, LFE
Sampling rate               : 48.0 kHz
Frame rate                  : 31.250 FPS (1536 SPF)
Bit depth                   : 16 bits
Compression mode            : Lossy
Stream size                 : 303 MiB (6%)
Title                       : iTunes
Language                    : Russian
Service kind                : Complete Main
Default                     : Yes
Forced                      : Yes

Audio #2
ID                          : 3
Format                      : AC-3
Format/Info                 : Audio Coding 3
Commercial name             : Dolby Digital
Codec ID                    : A_AC3
Duration                    : 1 h 50 min
Bit rate mode               : Constant
Bit rate                    : 160 kb/s
Channel(s)                  : 2 channels
Channel positions           : Front: L R
Sampling rate               : 48.0 kHz
Frame rate                  : 31.250 FPS (1536 SPF)
Bit depth                   : 16 bits
Compression mode            : Lossy
Stream size                 : 126 MiB (2%)
Title                       : iTunes
Language                    : Ukrainian
Service kind                : Complete Main
Default                     : No
Forced                      : No

Audio #3
ID                          : 4
Format                      : AC-3
Format/Info                 : Audio Coding 3
Commercial name             : Dolby Digital
Codec ID                    : A_AC3
Duration                    : 1 h 50 min
Bit rate mode               : Constant
Bit rate                    : 640 kb/s
Channel(s)                  : 6 channels
Channel positions           : Front: L C R, Side: L R, LFE
Sampling rate               : 48.0 kHz
Frame rate                  : 31.250 FPS (1536 SPF)
Bit depth                   : 16 bits
Compression mode            : Lossy
Stream size                 : 504 MiB (9%)
Title                       : Original
Language                    : English
Service kind                : Complete Main
Default                     : No
Forced                      : No

Text #1
ID                          : 5
Format                      : UTF-8
Codec ID                    : S_TEXT/UTF8
Codec ID/Info               : UTF-8 Plain Text
Duration                    : 1 h 43 min
Bit rate                    : 7 b/s
Count of elements           : 110
Stream size                 : 5.79 KiB (0%)
Title                       : Forced
Language                    : Russian
Default                     : Yes
Forced                      : Yes

Text #2
ID                          : 6
Format                      : UTF-8
Codec ID                    : S_TEXT/UTF8
Codec ID/Info               : UTF-8 Plain Text
Duration                    : 1 h 49 min
Bit rate                    : 107 b/s
Count of elements           : 1381
Stream size                 : 86.3 KiB (0%)
Title                       : Full
Language                    : Russian
Default                     : No
Forced                      : No

Text #3
ID                          : 7
Format                      : UTF-8
Codec ID                    : S_TEXT/UTF8
Codec ID/Info               : UTF-8 Plain Text
Duration                    : 1 h 47 min
Bit rate                    : 7 b/s
Count of elements           : 114
Stream size                 : 5.64 KiB (0%)
Title                       : Forced
Language                    : Ukrainian
Default                     : No
Forced                      : No

Text #4
ID                          : 8
Format                      : UTF-8
Codec ID                    : S_TEXT/UTF8
Codec ID/Info               : UTF-8 Plain Text
Duration                    : 1 h 43 min
Bit rate                    : 66 b/s
Count of elements           : 1778
Stream size                 : 50.7 KiB (0%)
Title                       : Full
Language                    : English
Default                     : No
Forced                      : No

Text #5
ID                          : 9
Format                      : UTF-8
Codec ID                    : S_TEXT/UTF8
Codec ID/Info               : UTF-8 Plain Text
Duration                    : 1 h 49 min
Bit rate                    : 69 b/s
Count of elements           : 1762
Stream size                 : 55.7 KiB (0%)
Title                       : SDH
Language                    : English
Default                     : No
Forced                      : No

Menu
00:00:00.000                : en:00:00:00.000
00:11:18.261                : en:00:11:18.261
00:20:06.747                : en:00:20:06.747
00:31:37.104                : en:00:31:37.104
00:41:29.612                : en:00:41:29.612
00:49:18.914                : en:00:49:18.914
00:56:22.296                : en:00:56:22.296
01:05:50.071                : en:01:05:50.071
01:16:32.546                : en:01:16:32.546
01:27:01.174                : en:01:27:01.174
01:35:42.153                : en:01:35:42.153
01:44:08.659                : en:01:44:08.659



Скриншоты:
[+] Всего файлов в раздаче - 1:

Текущая раздача:
ДатаКомментарии    РазмерПиры
2018-08-28 U 8 подруг Оушена / Ocean's Eight (2018) BDRip 720p от ExKinoRay | iTunes 5.32 GB ↑ 125 ↓ 144

Показать еще раздачи по запросу подруг:
2018-09-11 U 8 подруг Оушена / Ocean's Eight (2018) BDRip 720p от HELLYWOOD | Лицензия 4.37 GB ↑ 54 ↓ 16
2018-09-07 U 8 подруг Оушена / Ocean's Eight (2018) HDRip от Scarabey | Лицензия 1.45 GB ↑ 105 ↓ 55
2018-09-06 U 8 подруг Оушена / Ocean's Eight (2018) BDRip от ExKinoRay | Лицензия 2.18 GB ↑ 55 ↓ 6
2018-09-06 U 8 подруг Оушена / Ocean's Eight (2018) HDRip от MegaPeer | Лицензия 746.84 MB ↑ 52 ↓ 5
2018-09-06 U 8 подруг Оушена / Ocean's Eight (2018) BDRip от ExKinoRay | Лицензия 1.46 GB ↑ 92 ↓ 13
2018-09-05 U 8 подруг Оушена / Ocean's Eight (2018) BDRip 720p | Лицензия 3.93 GB ↑ 74 ↓ 22
2018-09-05 U 8 подруг Оушена / Ocean's Eight (2018) BDRip 1080p | Лицензия 10.99 GB ↑ 82 ↓ 60

Отзывы
Зарегистрируйтесь чтобы добавить комментарий.
Обратная связь
Copyleft ©