↑↓Torrent.by
Поиск
Логин: Регистрация
Пароль: Восстановить пароль
Загрузка...

Живите в радости (1978) WEBRip-AVC от KORSAR

Скачать zhivite-v-radosti-1978-webrip-avc-ot-korsar.torrent
U Магнитная ссылка Размер: 2.32 GB Раздают: 121 Качают: 17 Добавлен: 2018-08-30 05:46:10
Живите в радости (1978) WEBRip-AVC от KORSAR

Год выпуска: 1978
Страна: СССР
Жанр:  комедия
Продолжительность: 01:11:41
Режиссер: Леонид Миллионщиков
В ролях: Леонид Куравлёв, Владимир Басов, Борис Новиков, Валентина Телегина, Зоя Фёдорова, Елена Драпеко, Светлана Харитонова, Савелий Крамаров, Пётр Любешкин, Роман Филиппов

Описание: Механизатор Дмитрий Пряжкин постоянно что-то мастерит. Чинит все подряд, близкие даже покой потеряли. Так что односельчане ничего теперь не выбрасывают, а просто откладывают для неугомонного Митяя. Поехав в город выбивать технику для нужного селу моста, Митяй попал в руки жуликов.

Релиз:

Кодек: х264
Качество: WEBRip-AVC
Видео: MPEG-4 AVC, 1024x440, 25 fps, 4352 Кбит/с
Звук: AC3, 2 ch, 192 Кбит/с
[+] Инфо файл
[list]
x264 [info]: frame I:606   Avg QP:18.96  size: 97560
x264 [info]: frame P:30525 Avg QP:20.35  size: 48339
x264 [info]: frame B:76410 Avg QP:22.63  size: 11176
x264 [info]: consecutive B-frames:  4.4%  8.4% 12.7% 37.4% 19.4% 16.3%  1.0%  0.3%  0.0%  0.0%[/list]Общее
Уникальный идентификатор                 : 173565775946067348461699629820828502319 (0x82938D720D1D8BB9B5F4FE68C454C92F)
Полное имя                               : D:Живите в радости_1978-WEBRip-AVC_KORSAR.mkv
Формат                                   : Matroska
Версия формата                           : Version 2
Размер файла                             : 2,32 Гбайт
Продолжительность                        : 1 ч. 11 м.
Общий поток                              : 4636 Кбит/сек
Дата кодирования                         : UTC 2018-07-19 06:00:13
Программа кодирования                    : mkvmerge v5.8.0 ('No Sleep / Pillow') built on Sep  2 2012 15:37:04
Библиотека кодирования                   : libebml v1.2.3 + libmatroska v1.3.0

Видео
Идентификатор                            : 1
Формат                                   : AVC
Формат/Информация                        : Advanced Video Codec
Профиль формата                          : High@L4.1
Параметр CABAC формата                   : Да
Параметр RefFrames формата               : 14 кадров
Идентификатор кодека                     : V_MPEG4/ISO/AVC
Продолжительность                        : 1 ч. 11 м.
Битрейт                                  : 4352 Кбит/сек
Ширина                                   : 1024 пикселя
Высота                                   : 440 пикселей
Соотношение сторон                       : 2,35:1
Режим частоты кадров                     : Постоянный
Частота кадров                           : 25,000 кадров/сек
Цветовое пространство                    : YUV
Субдискретизация насыщенности            : 4:2:0
Битовая глубина                          : 8 бит
Тип развёртки                            : Прогрессивная
Бит/(Пиксели*Кадры)                      : 0.386
Размер потока                            : 2,18 Гбайт (94%)
Библиотека кодирования                   : x264 core 152 r2851kMod ba24899
Настройки программы                      : cabac=1 / ref=14 / deblock=1:-2:-1 / analyse=0x3:0x113 / me=umh / subme=10 / psy=1 / fade_compensate=0.00 / psy_rd=1.05:0.10 / mixed_ref=1 / me_range=48 / chroma_me=1 / trellis=2 / 8x8dct=1 / cqm=0 / deadzone=21,11 / fast_pskip=1 / chroma_qp_offset=-3 / threads=12 / lookahead_threads=2 / sliced_threads=0 / nr=0 / decimate=1 / interlaced=0 / bluray_compat=0 / constrained_intra=0 / bframes=9 / b_pyramid=2 / b_adapt=2 / b_bias=0 / direct=1 / weightb=1 / open_gop=0 / weightp=2 / keyint=250 / keyint_min=25 / scenecut=40 / intra_refresh=0 / rc=crf / mbtree=0 / crf=17.3000 / qcomp=0.63 / qpmin=0 / qpmax=39 / qpstep=4 / ip_ratio=1.40 / pb_ratio=1.30 / aq=1:0.90
Язык                                     : English
Default                                  : Да
Forced                                   : Нет
Цветовой диапазон                        : Limited
Основные цвета                           : BT.709
Характеристики трансфера                 : BT.709
Коэффициенты матрицы                     : BT.709

Аудио
Идентификатор                            : 2
Формат                                   : AC-3
Формат/Информация                        : Audio Coding 3
Параметр Endianness формата              : Big
Идентификатор кодека                     : A_AC3
Продолжительность                        : 1 ч. 11 м.
Вид битрейта                             : Постоянный
Битрейт                                  : 192 Кбит/сек
Каналы                                   : 2 канала
Расположение каналов                     : Front: L R
Частота                                  : 48,0 КГц
Частота кадров                           : 31,250 кадров/сек (1536 SPF)
Битовая глубина                          : 16 бит
Метод сжатия                             : С потерями
Размер потока                            : 98,5 Мбайт (4%)
Язык                                     : Russian
Default                                  : Да
Forced                                   : Нет




Скриншоты:
[+] Всего файлов в раздаче - 1:
Живите в радости_1978-WEBRip-AVC_KORSAR.mkv2.32 GB

Текущая раздача:
ДатаКомментарии    РазмерПиры
2018-08-30 U Живите в радости (1978) WEBRip-AVC от KORSAR 2.32 GB ↑ 121 ↓ 17

Похожие раздачи по запросу - живите:
2014-12-08 U Дальше живите сами / This Is Where I Leave You (2014) BDRip-AVC | P 2.18 GB ↑ 194 ↓ 66
2014-12-07 U Дальше живите сами / This Is Where I Leave You (2014) HDRip-AVC от ExKinoRay | Лицензия 1.82 GB ↑ 341 ↓ 185
2014-12-06 U Дальше живите сами / This Is Where I Leave You (2014) BDRip 720p | Лицензия 4.65 GB ↑ 483 ↓ 319
2014-12-06 U Дальше живите сами / This Is Where I Leave You (2014) HDRip | Лицензия 1.37 GB ↑ 490 ↓ 482

Отзывы
Зарегистрируйтесь чтобы добавить комментарий.
Обратная связь
Copyleft ©