↑↓Torrent.by
Поиск
Логин: Регистрация
Пароль: Восстановить пароль
Загрузка...

Раз ковбой, два ковбой... (1981) BDRip 720p

Скачать raz-kovboy-dva-1981-bdrip-720p.torrent
U Магнитная ссылка Размер: 530.14 MB Раздают: 177 Качают: 23 Добавлен: 2018-08-30 20:26:08
Раз ковбой, два ковбой... (1981) BDRip 720p

Раз ковбой, два ковбой...

Год выпуска: 1981
Жанр:  Мультфильм
Выпущено: СССР
Продолжительность: 00:10:44
Перевод: Не требуется

Режиссер: Анатолий Резников
Роли озвучивали: Андрей Миронов

О фильме: Пародия на американский вестерн.

Кодек: х264
Качество: BDRip 720p
Видео: MPEG-4 AVC, 6713 Кбит/с, 998x720, 24 fps
Аудио: АС3, 2 ch, 192 Кбит/с


[+] Инфо файл

x264 [info]: frame I:114   Avg QP:17.16  size:150207
x264 [info]: frame P:3783  Avg QP:19.53  size: 63560
x264 [info]: frame B:11557 Avg QP:21.17  size: 24463

Общее
Уникальный идентификатор                 : 193342603646547976955947707659971825127 (0x91746E554954CC3D8A196C4BDE958DE7)
Полное имя                               : I:Мульти-пультиРаз ковбой, два ковбой 1981_BDRip 720p.mkv
Формат                                   : Matroska
Версия формата                           : Version 2
Размер файла                             : 530 Мбайт
Продолжительность                        : 10 м. 43 с.
Общий поток                              : 6906 Кбит/сек
Дата кодирования                         : UTC 2018-08-30 11:18:31
Программа кодирования                    : mkvmerge v5.8.0 ('No Sleep / Pillow') built on Sep  2 2012 15:37:04
Библиотека кодирования                   : libebml v1.2.3 + libmatroska v1.3.0

Видео
Идентификатор                            : 1
Формат                                   : AVC
Формат/Информация                        : Advanced Video Codec
Профиль формата                          : High@L4.1
Настройки формата                        : CABAC / 11 Ref Frames
Параметр CABAC формата                   : Да
Параметр RefFrames формата               : 11 кадров
Идентификатор кодека                     : V_MPEG4/ISO/AVC
Продолжительность                        : 10 м. 43 с.
Битрейт                                  : 6713 Кбит/сек
Ширина                                   : 998 пикселей
Высота                                   : 720 пикселей
Соотношение сторон                       : 1,386
Режим частоты кадров                     : Постоянный
Частота кадров                           : 24,000 кадра/сек
Цветовое пространство                    : YUV
Субдискретизация насыщенности            : 4:2:0
Битовая глубина                          : 8 бит
Тип развёртки                            : Прогрессивная
Бит/(Пиксели*Кадры)                      : 0.389
Размер потока                            : 505 Мбайт (95%)
Библиотека кодирования                   : x264 core 152 r2851kMod ba24899
Настройки программы                      : cabac=1 / ref=11 / deblock=1:-2:-2 / analyse=0x3:0x113 / me=umh / subme=11 / psy=1 / fade_compensate=0.00 / psy_rd=1.05:0.03 / mixed_ref=1 / me_range=48 / chroma_me=1 / trellis=2 / 8x8dct=1 / cqm=0 / deadzone=21,11 / fast_pskip=0 / chroma_qp_offset=-3 / threads=12 / lookahead_threads=3 / sliced_threads=0 / nr=0 / decimate=0 / interlaced=0 / bluray_compat=0 / constrained_intra=0 / bframes=10 / b_pyramid=2 / b_adapt=2 / b_bias=0 / direct=3 / weightb=1 / open_gop=0 / weightp=2 / keyint=240 / keyint_min=24 / scenecut=40 / intra_refresh=0 / rc_lookahead=40 / rc=2pass / mbtree=0 / bitrate=6713 / ratetol=1.0 / qcomp=0.60 / qpmin=0 / qpmax=39 / qpstep=4 / cplxblur=20.0 / qblur=0.5 / vbv_maxrate=50000 / vbv_bufsize=62500 / nal_hrd=none / filler=0 / ip_ratio=1.25 / pb_ratio=1.30 / aq=1:1.00
Язык                                     : English
Default                                  : Да
Forced                                   : Нет
Цветовой диапазон                        : Limited
Основные цвета                           : BT.709
Характеристики трансфера                 : BT.709
Коэффициенты матрицы                     : BT.709

Аудио
Идентификатор                            : 2
Формат                                   : AC-3
Формат/Информация                        : Audio Coding 3
Параметр Endianness формата              : Big
Идентификатор кодека                     : A_AC3
Продолжительность                        : 10 м. 43 с.
Вид битрейта                             : Постоянный
Битрейт                                  : 192 Кбит/сек
Каналы                                   : 2 канала
Расположение каналов                     : Front: L R
Частота                                  : 48,0 КГц
Частота кадров                           : 31,250 кадров/сек (1536 SPF)
Битовая глубина                          : 16 бит
Метод сжатия                             : С потерями
Размер потока                            : 14,7 Мбайт (3%)
Язык                                     : Russian
Default                                  : Да
Forced                                   : Нет




Скриншоты:
[+] Всего файлов в раздаче - 1:
Раз ковбой, два ковбой 1981_BDRip 720p.mkv530.14 MB

Текущая раздача:
ДатаКомментарии    РазмерПиры
2018-08-30 U Раз ковбой, два ковбой... (1981) BDRip 720p 530.14 MB ↑ 177 ↓ 23

Похожие раздачи по запросу - ковбой:
2018-05-01 U Харлей Дэвидсон и ковбой Мальборо / Harley Davidson and the Marlboro Man (1991) BDRip 720p by msltel 5.17 GB ↑ 16 ↓ 8

Отзывы
Зарегистрируйтесь чтобы добавить комментарий.
Обратная связь
Copyleft ©