↑↓Torrent.by
Поиск
Логин: Регистрация
Пароль: Восстановить пароль
Загрузка...

Сердце из стали / Кровоточащая сталь / Ji qi zhi xue / Bleeding Steel (2017) BDRip 1080p | iTunes

Скачать serdce-iz-stali-krovotochaschaya-stal-ji-qi-zhi-xue-bleeding-steel-2017-bdrip-1080p-itunes.torrent
U Магнитная ссылка Размер: 9.81 GB Раздают: 418 Качают: 306 Добавлен: 2018-08-31 08:42:27
Сердце из стали / Кровоточащая сталь / Ji qi zhi xue / Bleeding Steel (2017) BDRip 1080p | iTunes

Название: Кровоточащая сталь
Оригинальное название: Ji qi zhi xue / Bleeding Steel
Год выхода: 2017
Жанр: Фантастика, боевик, триллер
Режиссер: Лицзя Чжан
В ролях: Джеки Чан, Каллэн Мулвей, Тесс Хобрич, Дэмиен Гарви, Ким Джинджелл, Ольга Миллер, Шоу Ло, Оу Ян Нана, Брахим Ачаббаке, Темур Мамисашвили, Брендан Бирн, Эрика Сяхоу

О фильме:
Специальный агент Линь, защищая гениального ученого, разрабатывавшего биологическое оружие, от внезапного нападения вооруженной группы элитных наёмников, возглавляемых беглым биороидом, получает тяжелые ранения и чудом остаётся жив, благодаря своевременной медицинской помощи и передовым технологиям. И теперь, работая под прикрытием, наш герой должен стать незримым ангелом-хранителем для молодой девушки, которая в детстве, оставшись полной сиротой, стала невольной участницей уникального научного эксперимента.

Страна: Китай, Гонконг
Студия: Heyi Pictures, Sparkle Roll Media, Village Roadshow Pictures Asia
Продолжительность: 01:50:07
Перевод: Дублированный (iTunes)

Файл
Кодек: H.264
Качество: BDRip 1080p
Видео: AVC/H.264, 1920x804, ~12,0 Мbps, 23.976 fps
Звук:
Аудио 1: AC3, 6 ch, 384 Kbps - Русский
Аудио 2: AC3, 6 ch, 384 Kbps - Английский
Субтитры: Русские, Английские


[+] Mediainfo
Общее
Уникальный идентификатор                 : 128772069341884311228834175941536692256 (0x60E0993302F4D1E470F911F828E8B820)
Полное имя                               : Bleeding Steel.2017.BDRip.1080pW..mkv
Формат                                   : Matroska
Версия формата                           : Version 4 / Version 2
Размер файла                             : 9,81 Гбайт
Продолжительность                        : 1 ч. 49 м.
Общий поток                              : 12,8 Мбит/сек
Название фильма                          : Bleeding Steel.2017.BDRip.1080p
Дата кодирования                         : UTC 2018-08-30 15:18:08
Программа кодирования                    : mkvmerge v23.0.0 ('The Bride Said No') 64-bit
Библиотека кодирования                   : libebml v1.3.6 + libmatroska v1.4.9

Видео
Идентификатор                            : 1
Формат                                   : AVC
Формат/Информация                        : Advanced Video Codec
Профиль формата                          : High@L4.1
Настройки формата                        : CABAC / 5 Ref Frames
Параметр CABAC формата                   : Да
Параметр RefFrames формата               : 5 кадров
Идентификатор кодека                     : V_MPEG4/ISO/AVC
Продолжительность                        : 1 ч. 49 м.
Битрейт                                  : 12,0 Мбит/сек
Ширина                                   : 1920 пикселей
Высота                                   : 804 пикселя
Соотношение сторон                       : 2,40:1
Режим частоты кадров                     : Постоянный
Частота кадров                           : 23,976 (24000/1001) кадра/сек
Цветовое пространство                    : YUV
Субдискретизация насыщенности            : 4:2:0
Битовая глубина                          : 8 бит
Тип развёртки                            : Прогрессивная
Бит/(Пиксели*Кадры)                      : 0.324
Размер потока                            : 9,22 Гбайт (94%)
Заголовок                                : IFT
Библиотека кодирования                   : x264 core 142 r2431+42 c69a006 tMod [8-bit@all X86_64]
Настройки программы                      : cabac=1 / ref=5 / deblock=1:-3:-3 / analyse=0x3:0x133 / me=umh / subme=11 / psy=1 / fade_compensate=0.00 / psy_rd=1.05:1.05 / mixed_ref=1 / me_range=48 / chroma_me=1 / trellis=2 / 8x8dct=1 / cqm=0 / deadzone=21,11 / fast_pskip=0 / chroma_qp_offset=-4 / threads=16 / lookahead_threads=2 / sliced_threads=0 / nr=0 / decimate=0 / interlaced=0 / bluray_compat=0 / constrained_intra=0 / fgo=0 / bframes=8 / b_pyramid=2 / b_adapt=2 / b_bias=0 / direct=3 / weightb=1 / open_gop=0 / weightp=2 / keyint=240 / keyint_min=23 / scenecut=40 / intra_refresh=0 / rc_lookahead=100 / rc=2pass / mbtree=0 / bitrate=12000 / ratetol=1.0 / qcomp=0.80 / qpmin=0:0:0 / qpmax=69:69:69 / qpstep=4 / cplxblur=20.0 / qblur=0.5 / vbv_maxrate=40000 / vbv_bufsize=30000 / nal_hrd=none / filler=0 / ip_ratio=1.30 / pb_ratio=1.20 / aq=2:0.78 / aq-sensitivity=10.00 / aq-factor=1.00:1.00:1.00 / aq2=0 / aq3=0
Язык                                     : English
Default                                  : Да
Forced                                   : Нет
Цветовой диапазон                        : Limited
Основные цвета                           : BT.709
Характеристики трансфера                 : BT.709
Коэффициенты матрицы                     : BT.709

Аудио #1
Идентификатор                            : 2
Формат                                   : AC-3
Формат/Информация                        : Audio Coding 3
Идентификатор кодека                     : A_AC3
Продолжительность                        : 1 ч. 49 м.
Вид битрейта                             : Постоянный
Битрейт                                  : 384 Кбит/сек
Каналы                                   : 6 каналов
Расположение каналов                     : Front: L C R, Side: L R, LFE
Частота                                  : 48,0 КГц
Частота кадров                           : 31,250 кадров/сек (1536 SPF)
Битовая глубина                          : 16 бит
Метод сжатия                             : С потерями
Размер потока                            : 301 Мбайт (3%)
Заголовок                                : DUB | iTunes
Язык                                     : Russian
ServiceKind                              : Complete Main
Default                                  : Да
Forced                                   : Нет

Аудио #2
Идентификатор                            : 3
Формат                                   : AC-3
Формат/Информация                        : Audio Coding 3
Идентификатор кодека                     : A_AC3
Продолжительность                        : 1 ч. 49 м.
Вид битрейта                             : Постоянный
Битрейт                                  : 384 Кбит/сек
Каналы                                   : 6 каналов
Расположение каналов                     : Front: L C R, Side: L R, LFE
Частота                                  : 48,0 КГц
Частота кадров                           : 31,250 кадров/сек (1536 SPF)
Битовая глубина                          : 16 бит
Метод сжатия                             : С потерями
Размер потока                            : 301 Мбайт (3%)
Язык                                     : English
ServiceKind                              : Complete Main
Default                                  : Нет
Forced                                   : Нет

Текст #1
Идентификатор                            : 4
Формат                                   : UTF-8
Идентификатор кодека                     : S_TEXT/UTF8
Идентификатор кодека/Информация          : UTF-8 Plain Text
Продолжительность                        : 1 ч. 41 м.
Битрейт                                  : 49 бит/сек
ElementCount                             : 756
Размер потока                            : 36,6 Кбайт (0%)
Язык                                     : Russian
Default                                  : Нет
Forced                                   : Нет

Текст #2
Идентификатор                            : 5
Формат                                   : UTF-8
Идентификатор кодека                     : S_TEXT/UTF8
Идентификатор кодека/Информация          : UTF-8 Plain Text
Продолжительность                        : 1 ч. 41 м.
Битрейт                                  : 28 бит/сек
ElementCount                             : 768
Размер потока                            : 21,1 Кбайт (0%)
Язык                                     : English
Default                                  : Нет
Forced                                   : Нет

Меню
00:00:00.000                             : en:00:00:00.000
00:07:42.879                             : en:00:07:42.879
00:18:16.178                             : en:00:18:16.178
00:26:08.692                             : en:00:26:08.692
00:35:25.123                             : en:00:35:25.123
00:45:17.632                             : en:00:45:17.632
00:51:54.320                             : en:00:51:54.320
01:00:07.938                             : en:01:00:07.938
01:09:18.738                             : en:01:09:18.738
01:17:45.369                             : en:01:17:45.369
01:26:30.102                             : en:01:26:30.102
01:39:26.460                             : en:01:39:26.460



Скриншоты:
[+] Всего файлов в раздаче - 1:
Bleeding Steel.2017.BDRip.1080pW..mkv9.81 GB

Текущая раздача:
ДатаКомментарии    РазмерПиры
2018-08-31 U Сердце из стали / Кровоточащая сталь / Ji qi zhi xue / Bleeding Steel (2017) BDRip 1080p | iTunes 1 К 9.81 GB ↑ 418 ↓ 306

Показать еще раздачи по запросу сердце:
2018-11-08 U Сердце мира (2018) WEB-DLRip от MegaPeer | iTunes 2.18 GB ↑ 102 ↓ 32
2018-11-08 U Сердце мира (2018) WEB-DL 1080p | iTunes 4.96 GB ↑ 242 ↓ 107
2018-11-08 U Сердце мира (2018) WEB-DLRip от MegaPeer | iTunes 1.46 GB ↑ 176 ↓ 68
2018-10-15 U Сердце следователя [01-04 из 04] (2018) WEB-DLRip от Files-x 2.73 GB ↑ 99 ↓ 65
2018-10-07 U Это чертово сердце / Dieses bescheuerte Herz (2017) BDRip-AVC | iTunes 2.17 GB ↑ 210 ↓ 63
2018-10-07 U Это чертово сердце / Dieses bescheuerte Herz (2017) BDRip 720p | iTunes 4.10 GB ↑ 359 ↓ 176
2018-10-07 U Это чертово сердце / Dieses bescheuerte Herz (2017) BDRip 1080p | iTunes 7.74 GB ↑ 639 ↓ 344

Отзывы
maxim.rudnitzkij
Пластмассовый фильм, снято не естественно, стереотипно, схожесть сюжета избита до крайности, но Джеки молодцом.

Зарегистрируйтесь чтобы добавить комментарий.
Обратная связь
Copyleft ©