↑↓Torrent.by
Поиск
Логин: Регистрация
Пароль: Восстановить пароль
Загрузка...

Приключения поросёнка Фунтика (1986-1988) BDRip 720p

Скачать priklyucheniya-porosenka-funtika-1986-1988-bdrip-720p.torrent
U Магнитная ссылка Размер: 1.53 GB Раздают: 45 Качают: 5 Добавлен: 2018-08-31 08:43:47
Приключения поросёнка Фунтика (1986-1988) BDRip 720p

Приключения поросёнка Фунтика

Год выпуска: 1986г.-1988г.
Жанр:  Мультфильм
Страна: СССР
Продолжительность: 00:10:36 + 00:10:28 + 00:10:17 + 00:09:42
Перевод: Не требуется

Режиссер: Анатолий Солин

О фильме: Поросёнок Фунтик сбегает от своей хозяйки, госпожи Беладонны, злой и жадной владелицы универмага «Слеза ребёнка», потому что не хочет обманывать детей и ложью выманивать у них деньги для Беладонны. Хозяйка начинает безжалостно преследовать поросёнка, который приносил ей очень неплохой доход. Ей помогают тупой начальник полиции Фокстрот и суетливые сыщики Добер и Пинчер. Но Фунтик случайно встречает в лесу дядюшку Мокуса и Бамбино - циркачей и отправляется с ними в путешествие навстречу новой жизни...

Кодек: х264
Качество: BDRip 720p
Видео: MPEG-4 AVC, (1,2) 5760 (3,4) 4475 Кбит/с, 998x720, 24 fps
Аудио: АС3, 2 сh, 192 Кбит/с


[+] Список серий

1. Неуловимый Фунтик (1986 г.)
2. Фунтик и сыщики (1986 г.)
3. Фунтик и старушка с усами (1987 г.)
4. Фунтик в цирке (1988 г.)



[+] Инфо файл 1 серии

x264 [info]: frame I:104   Avg QP:17.48  size:141192
x264 [info]: frame P:4704  Avg QP:19.97  size: 53576
x264 [info]: frame B:10450 Avg QP:21.13  size: 18264

Общее
Уникальный идентификатор                 : 171904516223800576557159448341753658602 (0x81539B047A6B3EAA88C75E525ED47CEA)
Полное имя                               : I:Мульти-пультиПриключения парасенка ФунтикаНеуловимый фунтик 1986_BDRip 720p.mkv
Формат                                   : Matroska
Версия формата                           : Version 2
Размер файла                             : 451 Мбайт
Продолжительность                        : 10 м. 35 с.
Общий поток                              : 5951 Кбит/сек
Дата кодирования                         : UTC 2018-08-29 23:45:45
Программа кодирования                    : mkvmerge v5.8.0 ('No Sleep / Pillow') built on Sep  2 2012 15:37:04
Библиотека кодирования                   : libebml v1.2.3 + libmatroska v1.3.0

Видео
Идентификатор                            : 1
Формат                                   : AVC
Формат/Информация                        : Advanced Video Codec
Профиль формата                          : High@L4.1
Настройки формата                        : CABAC / 11 Ref Frames
Параметр CABAC формата                   : Да
Параметр RefFrames формата               : 11 кадров
Идентификатор кодека                     : V_MPEG4/ISO/AVC
Продолжительность                        : 10 м. 35 с.
Битрейт                                  : 5760 Кбит/сек
Ширина                                   : 998 пикселей
Высота                                   : 720 пикселей
Соотношение сторон                       : 1,386
Режим частоты кадров                     : Постоянный
Частота кадров                           : 24,000 кадра/сек
Цветовое пространство                    : YUV
Субдискретизация насыщенности            : 4:2:0
Битовая глубина                          : 8 бит
Тип развёртки                            : Прогрессивная
Бит/(Пиксели*Кадры)                      : 0.334
Размер потока                            : 428 Мбайт (95%)
Библиотека кодирования                   : x264 core 152 r2851kMod ba24899
Настройки программы                      : cabac=1 / ref=11 / deblock=1:-2:-2 / analyse=0x3:0x113 / me=umh / subme=11 / psy=1 / fade_compensate=0.00 / psy_rd=1.02:0.05 / mixed_ref=1 / me_range=48 / chroma_me=1 / trellis=2 / 8x8dct=1 / cqm=0 / deadzone=21,11 / fast_pskip=0 / chroma_qp_offset=-3 / threads=12 / lookahead_threads=2 / sliced_threads=0 / nr=0 / decimate=0 / interlaced=0 / bluray_compat=0 / constrained_intra=0 / bframes=8 / b_pyramid=2 / b_adapt=2 / b_bias=0 / direct=3 / weightb=1 / open_gop=0 / weightp=2 / keyint=240 / keyint_min=24 / scenecut=40 / intra_refresh=0 / rc_lookahead=40 / rc=2pass / mbtree=0 / bitrate=5760 / ratetol=1.0 / qcomp=0.60 / qpmin=0 / qpmax=39 / qpstep=4 / cplxblur=20.0 / qblur=0.5 / vbv_maxrate=50000 / vbv_bufsize=62500 / nal_hrd=none / filler=0 / ip_ratio=1.25 / pb_ratio=1.30 / aq=1:1.00
Язык                                     : English
Default                                  : Да
Forced                                   : Нет
Цветовой диапазон                        : Limited
Основные цвета                           : BT.709
Характеристики трансфера                 : BT.709
Коэффициенты матрицы                     : BT.709

Аудио
Идентификатор                            : 2
Формат                                   : AC-3
Формат/Информация                        : Audio Coding 3
Параметр Endianness формата              : Big
Идентификатор кодека                     : A_AC3
Продолжительность                        : 10 м. 35 с.
Вид битрейта                             : Постоянный
Битрейт                                  : 192 Кбит/сек
Каналы                                   : 2 канала
Расположение каналов                     : Front: L R
Частота                                  : 48,0 КГц
Частота кадров                           : 31,250 кадров/сек (1536 SPF)
Битовая глубина                          : 16 бит
Метод сжатия                             : С потерями
Размер потока                            : 14,6 Мбайт (3%)
Язык                                     : Russian
Default                                  : Да
Forced                                   : Нет




Скриншоты:
[+] Всего файлов в раздаче - 4:
Неуловимый фунтик 1986_BDRip 720p.mkv451.07 MB
Фунтик и сыщики. 1986_BDRip 720p.mkv445.16 MB
Фунтик и старушка с усами 1987_BDRip 720p.mkv342.98 MB
Фунтик в цирке 1988_BDRip 720p.mkv323.48 MB

Текущая раздача:
ДатаКомментарии    РазмерПиры
2018-08-31 U Приключения поросёнка Фунтика (1986-1988) BDRip 720p 1.53 GB ↑ 45 ↓ 5

Показать еще раздачи по запросу приключения:
2018-08-10 U Амазонские приключения / Amazon Obhijaan (2017) WEBRip 1080p | GreenРай Studio 6.32 GB ↑ 73 ↓ 57
2018-08-10 U Амазонские приключения / Amazon Obhijaan (2017) WEBRip 720p | GreenРай Studio 3.57 GB ↑ 226 ↓ 93
2018-06-27 U Невероятные приключения ДжоДжо / JoJo's Bizarre Adventure: Diamond Is Unbreakable 1 (2017) BDRip-AVC | L 1К1.13 GB ↑ 22 ↓ 8
2018-06-11 U OST - Крылатые качели - песни из телефильма «Приключения Электроника» (1980) MP3 48.94 MB ↑ 195 ↓ 65
2018-05-25 U Невероятные приключения янки в Африке / Yankee Zulu (1993) WEB-DLRip 1080p | P, P2 8.78 GB ↑ 120 ↓ 34
2018-04-08 U Приключения гангстеров в Нью-Йорке / La leggenda di Al, John e Jack (2002) DVDRip-AVC от ExKinoRay | D 2.27 GB ↑ 43 ↓ 21
2018-04-04 U Армейские приключения / In the Army Now (1994) WEB-DL 1080p | P, P2, A 9.76 GB ↑ 25 ↓ 13

Отзывы
Зарегистрируйтесь чтобы добавить комментарий.
Обратная связь
Copyleft ©