↑↓Torrent.by
Поиск
Логин: Регистрация
Пароль: Восстановить пароль
Загрузка...

Пес Барбос и необычный кросс. Самогонщики (1961-1962) BDRip 720p от New-Team

Скачать pes-barbos-i-neobychnyy-kross-samogonschiki-1961-1962-bdrip-720p-ot-new-team.torrent
U Магнитная ссылка Размер: 1.09 GB Раздают: 58 Качают: 13 Добавлен: 2018-08-31 09:02:57
Пес Барбос и необычный кросс. Самогонщики (1961-1962) BDRip 720p от New-Team

Страна: СССР
Год выпуска: 1961
Студия: Мосфильм
Жанр:  комедия
Продолжительность: 00:10:28 + 00:18:59
Перевод: не требуется
Оригинальная аудиодорожка: русский
Cубтитры: нет
Режиссер: Леонид Гайдай

В ролях:
Евгений Моргунов, Георгий Вицин, Юрий Никулин, Владимир Пицек...
Об актёрах подробней

Описание:
Пес Барбос и необычный кросс:
Что есть главное средство для поддержания мужской дружбы и просто для увлекательного времяпрепровождения? Правильно, это рыбалка. Трус, Балбес и Бывалый решили испытать эту радость жизни на себе, но на свою беду взяли они с собой пса Барбоса…
Самогонщики:
Трус, Балбес и Бывалый решают поставить на широкую ногу изготовление самогона — и снова фиаско…

Исходник: Blu-ray 1080p
Тип релиза: BDRip 720p
Контейнер: MKV
Видео: 988x720 (1,372:1), 23,976 fps, H264 ~ 4526 kbps avg, 0.265 bit/pixel
Аудио: 48 kHz, AC3, 6 ch, 448.00 kbps

Раздача от:


[+] MediaInfo

Общее
Полное имя                               : Pes.Barbos.i.neobychnyy.kross.1961.BDRip-720p_[New-team]_by_AVP_Studio.mkv
Формат                                   : Matroska
Версия формата                           : Version 2
Размер файла                             : 373 Мбайт
Продолжительность                        : 10 м. 28 с.
Общий поток                              : 4978 Кбит/сек
Дата кодирования                         : UTC 2018-08-21 10:22:43
Программа кодирования                    : mkvmerge v6.1.0 ('Old Devil') built on Mar  4 2013 09:10:42
Библиотека кодирования                   : libebml v1.3.0 + libmatroska v1.4.0

Видео
Идентификатор                            : 1
Формат                                   : AVC
Формат/Информация                        : Advanced Video Codec
Профиль формата                          : High@L4.1
Настройки формата                        : CABAC / 8 Ref Frames
Параметр CABAC формата                   : Да
Параметр RefFrames формата               : 8 кадров
Идентификатор кодека                     : V_MPEG4/ISO/AVC
Продолжительность                        : 10 м. 28 с.
Битрейт                                  : 4526 Кбит/сек
Ширина                                   : 988 пикселей
Высота                                   : 720 пикселей
Соотношение сторон                       : 1,372
Режим частоты кадров                     : Постоянный
Частота кадров                           : 23,976 (24000/1001) кадра/сек
Цветовое пространство                    : YUV
Субдискретизация насыщенности            : 4:2:0
Битовая глубина                          : 8 бит
Тип развёртки                            : Прогрессивная
Бит/(Пиксели*Кадры)                      : 0.265
Размер потока                            : 332 Мбайт (89%)
Библиотека кодирования                   : x264 core 130 r2273 b3065e6
Настройки программы                      : cabac=1 / ref=8 / deblock=1:-3:-3 / analyse=0x3:0x133 / me=umh / subme=10 / psy=1 / psy_rd=1.00:0.00 / mixed_ref=1 / me_range=32 / chroma_me=1 / trellis=2 / 8x8dct=1 / cqm=0 / deadzone=21,11 / fast_pskip=1 / chroma_qp_offset=-2 / threads=6 / lookahead_threads=1 / sliced_threads=0 / nr=0 / decimate=0 / interlaced=0 / bluray_compat=0 / constrained_intra=0 / bframes=8 / b_pyramid=2 / b_adapt=2 / b_bias=0 / direct=3 / weightb=1 / open_gop=0 / weightp=2 / keyint=240 / keyint_min=24 / scenecut=40 / intra_refresh=0 / rc=2pass / mbtree=0 / bitrate=4526 / ratetol=1.0 / qcomp=0.60 / qpmin=0 / qpmax=69 / qpstep=4 / cplxblur=20.0 / qblur=0.5 / ip_ratio=1.40 / pb_ratio=1.30 / aq=1:1.00
Default                                  : Да
Forced                                   : Нет

Аудио
Идентификатор                            : 2
Формат                                   : AC-3
Формат/Информация                        : Audio Coding 3
Идентификатор кодека                     : A_AC3
Продолжительность                        : 10 м. 28 с.
Вид битрейта                             : Постоянный
Битрейт                                  : 448 Кбит/сек
Каналы                                   : 6 каналов
Расположение каналов                     : Front: L C R, Side: L R, LFE
Частота                                  : 48,0 КГц
Частота кадров                           : 31,250 кадров/сек (1536 SPF)
Битовая глубина                          : 16 бит
Метод сжатия                             : С потерями
Размер потока                            : 33,5 Мбайт (9%)
Default                                  : Да
Forced                                   : Нет



Скриншоты:
[+] Всего файлов в раздаче - 2:
Pes.Barbos.i.neobychnyy.kross.1961.BDRip-720p_[New-team]_by_AVP_Studio.mkv372.71 MB
Samogonshchiki.1962.BDRip-720p_[New-team]_by_AVP_Studio.mkv745.22 MB

Текущая раздача:
ДатаКомментарии    РазмерПиры
2018-08-31 U Пес Барбос и необычный кросс. Самогонщики (1961-1962) BDRip 720p от New-Team 1.09 GB ↑ 58 ↓ 13

Похожие раздачи по запросу - барбос:
2017-07-10 U Самогонщики, Пес Барбос и необычный кросс (1961) BDRip-HEVC 1080p ot ADVOKAT69 1К2.36 GB ↑ 25 ↓ 22
2014-01-02 U Сборник фильмов - Самогонщики; Пес Барбос и необычный кросс; Сто грамм для храбрости (1961-1976) DVDRip 3К1.46 GB ↑ 911 ↓ 25
2013-11-18 U Пес Барбос и необычный кросс (1961) BDRip от HQ-ViDEO 198.16 MB ↑ 111 ↓ 30

Отзывы
Зарегистрируйтесь чтобы добавить комментарий.
Обратная связь
Copyleft ©