↑↓Torrent.by
Поиск
Логин: Регистрация
Пароль: Восстановить пароль
Загрузка...

Остров собак / Isle of Dogs (2018) BDRip 1080p | Лицензия

Скачать ostrov-sobak-isle-of-dogs-2018-bdrip-1080p-licenziya.torrent
U Магнитная ссылка Размер: 8.17 GB Раздают: 65 Качают: 13 Добавлен: 2018-09-02 07:12:29
Остров собак / Isle of Dogs (2018) BDRip 1080p | Лицензия

Название: Остров собак  
Оригинальное название: Isle of Dogs
Год выхода: 2018
Жанр: Мультфильм, фэнтези, драма, комедия, приключения
Режиссер: Уэс Андерсон
Роли озвучивают: Брайан Крэнстон, Кою Ранкин, Эдвард Нортон, Боб Бэлабан, Билл Мюррей, Джефф Голдблюм, Кунъити Номура, Акира Такаяма, Грета Гервиг, Фрэнсис МакДорманд

О фильме:
История 12-летнего мальчика Атари Кобаяши, опекаемого коррумпированным мэром Кобаяши. Когда по Указу последнего все домашние собаки города Мегасаки изгоняются на громадную свалку, Атари в одиночку отправляется на миниатюрном летательном аппарате на мусорный остров, чтобы найти своего верного пса по прозвищу Спотс. Там на острове вместе со стаей новых друзей-дворняг он начнет эпичное путешествие, которое решит будущую судьбу всей Префектуры.

Страна: Германия, США
Студия: 20th Century Fox Animation, American Empirical Pictures, Indian Paintbrush, Studio Babelsberg
Продолжительность: 01:41:10
Перевод:
•   Дублированный | Blu-ray EUR

Файл
Качество: BDRip 1080p
Формат: MKV
Кодек: MPEG-4 AVC
Видео: 1920x804 (2.40:1), 23,976 fps, MPEG-4 AVC ~ 8385 Kbps avg, 0.227 bit/pixel
Аудио: DTS, 48 kHz, 6 ch, ~768.00 kbps avg | русский | Blu-ray EUR
Аудио: AC3, 48 kHz, 6 ch, ~448.00 kbps avg | русский | Blu-ray EUR
Аудио: AC3, 48 kHz, 6 ch, ~448.00 kbps avg | ураинский | Blu-ray EUR
Аудио: DTS, 48 kHz, 6 ch, ~1509.00 kbps avg | английский | Оригинал

Субтитры: Русские (Forced, Full), Украинские (Forced, Full), Английские (Full, SDH)
Семпл


[+] Инфо-файл
Общее
Уникальный идентификатор                 : 242745497852561834045122045586133695359 (0xB69F1512C9EBC30CF083E47642BB3B7F)
Полное имя                               : Isle.of.Dogs.2018.BluRay.1080p.DTS.x264.Rus.Ukr.Eng.mkv
Формат                                   : Matroska
Версия формата                           : Version 4 / Version 2
Размер файла                             : 8,17 Гбайт
Продолжительность                        : 1 ч. 41 м.
Общий поток                              : 11,6 Мбит/сек
Название фильма                          : Isle.of.Dogs.2018.BluRay.1080p.DTS.x264.Rus.Ukr.Eng
Дата кодирования                         : UTC 2018-08-31 20:54:49
Программа кодирования                    : mkvmerge v20.0.0 ('I Am The Sun') 64-bit
Библиотека кодирования                   : libebml v1.3.5 + libmatroska v1.4.8
Обложка                                  : Yes
Attachments                              : cover.jpg

Видео
Идентификатор                            : 1
Формат                                   : AVC
Формат/Информация                        : Advanced Video Codec
Профиль формата                          : High@L4.1
Настройки формата                        : CABAC / 4 Ref Frames
Параметр CABAC формата                   : Да
Параметр RefFrames формата               : 4 кадра
Идентификатор кодека                     : V_MPEG4/ISO/AVC
Продолжительность                        : 1 ч. 41 м.
Битрейт                                  : 8385 Кбит/сек
Ширина                                   : 1920 пикселей
Высота                                   : 804 пикселя
Соотношение сторон                       : 2,40:1
Режим частоты кадров                     : Постоянный
Частота кадров                           : 23,976 (24000/1001) кадра/сек
Цветовое пространство                    : YUV
Субдискретизация насыщенности            : 4:2:0
Битовая глубина                          : 8 бит
Тип развёртки                            : Прогрессивная
Бит/(Пиксели*Кадры)                      : 0.227
Размер потока                            : 5,92 Гбайт (73%)
Заголовок                                : Isle.of.Dogs.2018.BluRay.1080p.DTS.x264-CHDBits
Библиотека кодирования                   : x264 core 155 r2867+74 66b5600 t_mod_Custom_2 [8-bit@all X86_64]
Настройки программы                      : cabac=1 / ref=4 / deblock=1:-3:-3 / analyse=0x3:0x113 / me=umh / subme=10 / psy=1 / fade_compensate=0.00 / psy_rd=0.90:0.10 / mixed_ref=1 / me_range=48 / chroma_me=1 / trellis=2 / 8x8dct=1 / cqm=0 / deadzone=21,11 / fast_pskip=0 / chroma_qp_offset=-2 / threads=18 / lookahead_threads=3 / sliced_threads=0 / nr=0 / decimate=1 / interlaced=0 / bluray_compat=0 / constrained_intra=0 / fgo=0 / bframes=8 / b_pyramid=2 / b_adapt=2 / b_bias=0 / direct=3 / weightb=1 / open_gop=0 / weightp=2 / keyint=250 / keyint_min=23 / scenecut=40 / intra_refresh=0 / rc_lookahead=40 / rc=crf / mbtree=0 / crf=18.0000 / qcomp=0.70 / qpmin=0:0:0 / qpmax=69:69:69 / qpstep=4 / vbv_maxrate=35000 / vbv_bufsize=35000 / crf_max=0.0 / nal_hrd=none / filler=0 / ip_ratio=1.40 / pb_ratio=1.30 / aq=3:0.90 / aq-sensitivity=10.00 / aq-factor=1.00:1.00:1.00 / aq2=0 / aq3=2:[0.50:0.50]:[0.50:0.50]:[0.50:0.50]:[0.50:0.50] / aq3-sensitivity=10.00 / aq3-factor=[1.00:1.00]:[1.00:1.00]:[1.00:1.00] / aq3-boundary=192:64:24
Язык                                     : English
Default                                  : Да
Forced                                   : Нет
Цветовой диапазон                        : Limited
Коэффициенты матрицы                     : BT.709

Аудио #1
Идентификатор                            : 2
Формат                                   : DTS
Формат/Информация                        : Digital Theater Systems
Идентификатор кодека                     : A_DTS
Продолжительность                        : 1 ч. 41 м.
Вид битрейта                             : Постоянный
Битрейт                                  : 768 Кбит/сек
Каналы                                   : 6 каналов
Расположение каналов                     : Front: L C R, Side: L R, LFE
Частота                                  : 48,0 КГц
Частота кадров                           : 93,750 кадра/сек (512 SPF)
Битовая глубина                          : 24 бит
Метод сжатия                             : С потерями
Размер потока                            : 556 Мбайт (7%)
Заголовок                                : Blu-ray EUR
Язык                                     : Russian
Default                                  : Да
Forced                                   : Да

Аудио #2
Идентификатор                            : 3
Формат                                   : AC-3
Формат/Информация                        : Audio Coding 3
Идентификатор кодека                     : A_AC3
Продолжительность                        : 1 ч. 41 м.
Вид битрейта                             : Постоянный
Битрейт                                  : 448 Кбит/сек
Каналы                                   : 6 каналов
Расположение каналов                     : Front: L C R, Side: L R, LFE
Частота                                  : 48,0 КГц
Частота кадров                           : 31,250 кадров/сек (1536 SPF)
Битовая глубина                          : 16 бит
Метод сжатия                             : С потерями
Размер потока                            : 324 Мбайт (4%)
Заголовок                                : Blu-ray EUR
Язык                                     : Russian
Default                                  : Нет
Forced                                   : Нет

Аудио #3
Идентификатор                            : 4
Формат                                   : AC-3
Формат/Информация                        : Audio Coding 3
Идентификатор кодека                     : A_AC3
Продолжительность                        : 1 ч. 41 м.
Вид битрейта                             : Постоянный
Битрейт                                  : 448 Кбит/сек
Каналы                                   : 6 каналов
Расположение каналов                     : Front: L C R, Side: L R, LFE
Частота                                  : 48,0 КГц
Частота кадров                           : 31,250 кадров/сек (1536 SPF)
Битовая глубина                          : 16 бит
Метод сжатия                             : С потерями
Размер потока                            : 324 Мбайт (4%)
Заголовок                                : Blu-ray EUR
Язык                                     : Ukrainian
Default                                  : Нет
Forced                                   : Нет

Аудио #4
Идентификатор                            : 5
Формат                                   : DTS
Формат/Информация                        : Digital Theater Systems
Идентификатор кодека                     : A_DTS
Продолжительность                        : 1 ч. 41 м.
Вид битрейта                             : Постоянный
Битрейт                                  : 1509 Кбит/сек
Каналы                                   : 6 каналов
Расположение каналов                     : Front: L C R, Side: L R, LFE
Частота                                  : 48,0 КГц
Частота кадров                           : 93,750 кадра/сек (512 SPF)
Битовая глубина                          : 24 бит
Метод сжатия                             : С потерями
Размер потока                            : 1,07 Гбайт (13%)
Заголовок                                : Original
Язык                                     : English
Default                                  : Нет
Forced                                   : Нет

Текст #1
Идентификатор                            : 6
Формат                                   : UTF-8
Идентификатор кодека                     : S_TEXT/UTF8
Идентификатор кодека/Информация          : UTF-8 Plain Text
Продолжительность                        : 1 ч. 34 м.
Битрейт                                  : 10 бит/сек
ElementCount                             : 133
Размер потока                            : 7,30 Кбайт (0%)
Заголовок                                : Forced
Язык                                     : Russian
Default                                  : Да
Forced                                   : Да

Текст #2
Идентификатор                            : 7
Формат                                   : UTF-8
Идентификатор кодека                     : S_TEXT/UTF8
Идентификатор кодека/Информация          : UTF-8 Plain Text
Продолжительность                        : 1 ч. 35 м.
Битрейт                                  : 96 бит/сек
ElementCount                             : 1276
Размер потока                            : 67,6 Кбайт (0%)
Заголовок                                : Full
Язык                                     : Russian
Default                                  : Нет
Forced                                   : Нет

Текст #3
Идентификатор                            : 8
Формат                                   : UTF-8
Идентификатор кодека                     : S_TEXT/UTF8
Идентификатор кодека/Информация          : UTF-8 Plain Text
Продолжительность                        : 18 с. 642 мс.
Битрейт                                  : 121 бит/сек
ElementCount                             : 5
Размер потока                            : 284 байт (0%)
Заголовок                                : Forced
Язык                                     : Ukrainian
Default                                  : Нет
Forced                                   : Нет

Текст #4
Идентификатор                            : 9
Формат                                   : UTF-8
Идентификатор кодека                     : S_TEXT/UTF8
Идентификатор кодека/Информация          : UTF-8 Plain Text
Продолжительность                        : 1 ч. 34 м.
Битрейт                                  : 95 бит/сек
ElementCount                             : 1081
Размер потока                            : 66,1 Кбайт (0%)
Заголовок                                : Full
Язык                                     : Ukrainian
Default                                  : Нет
Forced                                   : Нет

Текст #5
Идентификатор                            : 10
Формат                                   : UTF-8
Идентификатор кодека                     : S_TEXT/UTF8
Идентификатор кодека/Информация          : UTF-8 Plain Text
Продолжительность                        : 1 ч. 33 м.
Битрейт                                  : 56 бит/сек
ElementCount                             : 1195
Размер потока                            : 38,8 Кбайт (0%)
Заголовок                                : Full
Язык                                     : English
Default                                  : Нет
Forced                                   : Нет

Текст #6
Идентификатор                            : 11
Формат                                   : UTF-8
Идентификатор кодека                     : S_TEXT/UTF8
Идентификатор кодека/Информация          : UTF-8 Plain Text
Продолжительность                        : 1 ч. 35 м.
Битрейт                                  : 63 бит/сек
ElementCount                             : 1437
Размер потока                            : 44,6 Кбайт (0%)
Заголовок                                : SDH
Язык                                     : English
Default                                  : Нет
Forced                                   : Нет

Меню
00:00:00.000                             : en:00:00:00.000
00:03:36.049                             : en:00:03:36.049
00:07:53.180                             : en:00:07:53.180
00:13:41.195                             : en:00:13:41.195
00:16:39.373                             : en:00:16:39.373
00:20:45.035                             : en:00:20:45.035
00:26:04.311                             : en:00:26:04.311
00:29:27.265                             : en:00:29:27.265
00:35:58.572                             : en:00:35:58.572
00:40:36.474                             : en:00:40:36.474
00:44:46.432                             : en:00:44:46.432
00:48:15.099                             : en:00:48:15.099
00:52:07.498                             : en:00:52:07.498
00:56:06.778                             : en:00:56:06.778
00:59:07.083                             : en:00:59:07.083
01:03:17.710                             : en:01:03:17.710
01:08:45.078                             : en:01:08:45.078
01:14:03.229                             : en:01:14:03.229
01:16:34.963                             : en:01:16:34.963
01:20:46.923                             : en:01:20:46.923
01:23:36.217                             : en:01:23:36.217
01:30:09.735                             : en:01:30:09.735
01:33:02.492                             : en:01:33:02.492
01:35:41.234                             : en:01:35:41.234



Скриншоты:
[+] Всего файлов в раздаче - 1:
Isle.of.Dogs.2018.BluRay.1080p.DTS.x264.Rus.Ukr.Eng.mkv8.17 GB

Текущая раздача:
ДатаКомментарии    РазмерПиры
2018-09-02 U Остров собак / Isle of Dogs (2018) BDRip 1080p | Лицензия 8.17 GB ↑ 65 ↓ 13

Показать еще раздачи по запросу остров:
2018-09-02 U Остров собак / Isle of Dogs (2018) BDRip 720p | Лицензия 3.97 GB ↑ 39 ↓ 13
2018-09-01 U Остров собак / Isle of Dogs (2018) BDRip от MegaPeer | Лицензия 1К1.46 GB ↑ 33 ↓ 18
2018-07-24 U Остров исправления (2017) WEB-DL 1080p 2.57 GB ↑ 343 ↓ 77
2018-07-23 U Остров исправления (2017) WEB-DLRip-AVC от Files-x 1.37 GB ↑ 147 ↓ 36
2018-07-07 U Остров исправления (2017) WEB-DLRip от GeneralFilm 745.25 MB ↑ 578 ↓ 83
2018-07-07 U Остров исправления (2017) WEB-DLRip от Files-x 1.11 GB ↑ 321 ↓ 83
2018-05-23 U Остров Обезглавливания / Onna-ro hizu / Decapitation Island (1970) DVDRip | Sub 739.09 MB ↑ 178 ↓ 39

Отзывы
Зарегистрируйтесь чтобы добавить комментарий.
Обратная связь
Copyleft ©