↑↓Torrent.by
Поиск
Логин: Регистрация
Пароль: Восстановить пароль
Загрузка...

Остров собак / Isle of Dogs (2018) BDRip 720p | Лицензия

Скачать ostrov-sobak-isle-of-dogs-2018-bdrip-720p-licenziya.torrent
U Магнитная ссылка Размер: 3.97 GB Раздают: 39 Качают: 13 Добавлен: 2018-09-02 08:13:59
Остров собак / Isle of Dogs (2018) BDRip 720p | Лицензия

Название: Остров собак
Оригинальное название: Isle of Dogs
Год выпуска: 2018
Жанр:  мультфильм, фантастика, фэнтези, драма, комедия, приключения
Режиссер: Уэс Андерсон
В ролях: Брайан Крэнстон (Chief, озвучка), Кою Ранкин (Atari, озвучка), Эдвард Нортон (Rex, озвучка), Боб Бэлабан (King, озвучка), Билл Мюррей (Boss, озвучка), Джефф Голдблюм (Duke, озвучка), Кунъити Номура (Mayor Kobayashi, озвучка), Акира Такаяма (Major-Domo, озвучка), Грета Гервиг (Tracy Walker, озвучка), Фрэнсис МакДорманд (Interpreter Nelson, озвучка), Акира Ито (Professor Watanabe, озвучка), Скарлетт Йоханссон (Nutmeg, озвучка)

О фильме: История 12-летнего мальчика Атари Кобаяши, опекаемого коррумпированным мэром Кобаяши. Когда по Указу последнего все домашние собаки города Мегасаки изгоняются на громадную свалку, Атари в одиночку отправляется на миниатюрном летательном аппарате на мусорный остров, чтобы найти своего верного пса по прозвищу Спотс. Там на острове вместе со стаей новых друзей-дворняг он начнет эпичное путешествие, которое решит будущую судьбу всей Префектуры.

MPAA: PG-13 - Детям до 13 лет просмотр не желателен

Страна: Германия, США
Студия: American Empirical Pictures, Indian Paintbrush, Studio Babelsberg
Продолжительность: 01:41:10
Перевод: Профессиональный (дублированный) Blu-ray EUR

Файл
Качество: BDRip 720p
Формат: Matroska
Видео: 1280x534 at 23.976 fps, х264, ~3635 kbps avg
Аудио#1: Russian: 48 kHz, AC3, 3/2 (L,C,R,l,r) + LFE ch, ~448 kbps avg |Дубляж, Blu-ray EUR|
Аудио#2: Ukrainian: 48 kHz, AC3, 3/2 (L,C,R,l,r) + LFE ch, ~448 kbps avg |Дубляж, Blu-ray EUR|
Аудио#3: Multi: 48 kHz, AC3, 3/2 (L,C,R,l,r) + LFE ch, ~640 kbps avg
Аудио#4: English: 48 kHz, AC3, 3/2 (L,C,R,l,r) + LFE ch, ~448 kbps avg |Descrіptіve|
Субтитры: Russian (Forced, Full |Focs|), Ukrainian (Forced, Full), English (SDH)

***Сохранены оригинальные главы как на Blu-ray.
***Релиз: whip93.


[+] Знаете ли вы, что...
Влияние на авторов фильма оказали работы Акиры Куросавы (1910-1998) и рождественские ролики компании Rankin/Bass Productions, Inc.



[+] MediaInfo
Общее
Уникальный идентификатор                 : 315103642844544298330096149739297122862 (0xED0EC10EECB09BC6A1B4A4861D352A2E)
Полное имя                               : Isle.of.Dogs.2018.720p.BluRay.DD5.1.x264.-whip93.mkv
Формат                                   : Matroska
Версия формата                           : Version 4 / Version 2
Размер файла                             : 3,97 Гбайт
Продолжительность                        : 1 ч. 41 м.
Общий поток                              : 5622 Кбит/сек
Название фильма                          : Остров собак | Isle of Dogs (2018) - Release by whip93
Дата кодирования                         : UTC 2018-09-01 05:24:19
Программа кодирования                    : mkvmerge v26.0.0 ('In The Game') 64-bit
Библиотека кодирования                   : libebml v1.3.6 + libmatroska v1.4.9

Видео
Идентификатор                            : 1
Формат                                   : AVC
Формат/Информация                        : Advanced Video Codec
Профиль формата                          : High@L4.1
Параметр CABAC формата                   : Да
Параметр ReFrames формата                : 12 кадров
Идентификатор кодека                     : V_MPEG4/ISO/AVC
Продолжительность                        : 1 ч. 41 м.
Битрейт                                  : 3526 Кбит/сек
Ширина                                   : 1280 пикселей
Высота                                   : 534 пикселя
Соотношение сторон                       : 2,40:1
Режим частоты кадров                     : Постоянный
Частота кадров                           : 23,976 кадра/сек
Цветовое пространство                    : YUV
Субдискретизация насыщенности            : 4:2:0
Битовая глубина                          : 8 бит
Тип развёртки                            : Прогрессивная
Бит/(Пиксели*Кадры)                      : 0.215
Размер потока                            : 2,49 Гбайт (63%)
Заголовок                                : Encoded by whip93
Библиотека кодирования                   : x264 core 155 r2867+82 a249126 t_mod_Custom_2 [8-bit@all X86_64]
Настройки программы                      : cabac=1 / ref=12 / deblock=1:-3:-3 / analyse=0x3:0x133 / me=umh / subme=11 / psy=1 / fade_compensate=0.00 / psy_rd=1.00:0.08 / mixed_ref=0 / me_range=48 / chroma_me=1 / trellis=2 / 8x8dct=1 / cqm=0 / deadzone=21,11 / fast_pskip=1 / chroma_qp_offset=-3 / threads=12 / lookahead_threads=3 / sliced_threads=0 / nr=0 / decimate=1 / interlaced=0 / bluray_compat=0 / constrained_intra=0 / fgo=0 / bframes=14 / b_pyramid=2 / b_adapt=2 / b_bias=0 / direct=1 / weightb=1 / open_gop=0 / weightp=2 / keyint=250 / keyint_min=23 / scenecut=40 / intra_refresh=0 / rc_lookahead=90 / rc=crf / mbtree=0 / crf=16.0000 / qcomp=0.72 / qpmin=0:0:0 / qpmax=69:69:69 / qpstep=4 / vbv_maxrate=62500 / vbv_bufsize=78125 / crf_max=0.0 / nal_hrd=none / filler=0 / ip_ratio=1.40 / pb_ratio=1.30 / aq=3:0.80 / aq-sensitivity=10.00 / aq-factor=1.00:1.00:1.00 / aq2=0 / aq3=0
Язык                                     : English
Default                                  : Да
Forced                                   : Нет
Основные цвета                           : BT.709
Характеристики трансфера                 : BT.709
Коэффициенты матрицы                     : BT.709

Аудио #1
Идентификатор                            : 2
Формат                                   : AC-3
Формат/Информация                        : Audio Coding 3
Расширение режима                        : CM (complete main)
Параметр Endianness формата              : Big
Идентификатор кодека                     : A_AC3
Продолжительность                        : 1 ч. 41 м.
Вид битрейта                             : Постоянный
Битрейт                                  : 448 Кбит/сек
Каналы                                   : 6 каналов
Расположение каналов                     : Front: L C R, Side: L R, LFE
Частота                                  : 48,0 КГц
Битовая глубина                          : 16 бит
Метод сжатия                             : С потерями
Размер потока                            : 324 Мбайт (8%)
Заголовок                                : Dub (CEE)
Язык                                     : Russian
Default                                  : Да
Forced                                   : Нет

Аудио #2
Идентификатор                            : 3
Формат                                   : AC-3
Формат/Информация                        : Audio Coding 3
Расширение режима                        : CM (complete main)
Параметр Endianness формата              : Big
Идентификатор кодека                     : A_AC3
Продолжительность                        : 1 ч. 41 м.
Вид битрейта                             : Постоянный
Битрейт                                  : 448 Кбит/сек
Каналы                                   : 6 каналов
Расположение каналов                     : Front: L C R, Side: L R, LFE
Частота                                  : 48,0 КГц
Битовая глубина                          : 16 бит
Метод сжатия                             : С потерями
Размер потока                            : 324 Мбайт (8%)
Заголовок                                : Dub (CEE)
Язык                                     : Ukrainian
Default                                  : Нет
Forced                                   : Нет

Аудио #3
Идентификатор                            : 4
Формат                                   : AC-3
Формат/Информация                        : Audio Coding 3
Расширение режима                        : CM (complete main)
Параметр Endianness формата              : Big
Идентификатор кодека                     : A_AC3
Продолжительность                        : 1 ч. 41 м.
Вид битрейта                             : Постоянный
Битрейт                                  : 640 Кбит/сек
Каналы                                   : 6 каналов
Расположение каналов                     : Front: L C R, Side: L R, LFE
Частота                                  : 48,0 КГц
Битовая глубина                          : 16 бит
Метод сжатия                             : С потерями
Размер потока                            : 463 Мбайт (11%)
Заголовок                                : Original
Язык                                     : Несколько языков
Default                                  : Нет
Forced                                   : Нет

Аудио #4
Идентификатор                            : 5
Формат                                   : AC-3
Формат/Информация                        : Audio Coding 3
Расширение режима                        : CM (complete main)
Параметр Endianness формата              : Big
Идентификатор кодека                     : A_AC3
Продолжительность                        : 1 ч. 41 м.
Вид битрейта                             : Постоянный
Битрейт                                  : 448 Кбит/сек
Каналы                                   : 6 каналов
Расположение каналов                     : Front: L C R, Side: L R, LFE
Частота                                  : 48,0 КГц
Битовая глубина                          : 16 бит
Метод сжатия                             : С потерями
Размер потока                            : 324 Мбайт (8%)
Заголовок                                : Deive
Язык                                     : English
Default                                  : Нет
Forced                                   : Нет

Текст #1
Идентификатор                            : 6
Формат                                   : UTF-8
Идентификатор кодека                     : S_TEXT/UTF8
Идентификатор кодека/Информация          : UTF-8 Plain Text
Заголовок                                : Forced
Язык                                     : Russian
Default                                  : Да
Forced                                   : Нет

Текст #2
Идентификатор                            : 7
Формат                                   : UTF-8
Идентификатор кодека                     : S_TEXT/UTF8
Идентификатор кодека/Информация          : UTF-8 Plain Text
Заголовок                                : Focs
Язык                                     : Russian
Default                                  : Нет
Forced                                   : Нет

Текст #3
Идентификатор                            : 8
Формат                                   : UTF-8
Идентификатор кодека                     : S_TEXT/UTF8
Идентификатор кодека/Информация          : UTF-8 Plain Text
Заголовок                                : Forced
Язык                                     : Ukrainian
Default                                  : Нет
Forced                                   : Нет

Текст #4
Идентификатор                            : 9
Формат                                   : UTF-8
Идентификатор кодека                     : S_TEXT/UTF8
Идентификатор кодека/Информация          : UTF-8 Plain Text
Заголовок                                : CEE
Язык                                     : Ukrainian
Default                                  : Нет
Forced                                   : Нет

Текст #5
Идентификатор                            : 10
Формат                                   : UTF-8
Идентификатор кодека                     : S_TEXT/UTF8
Идентификатор кодека/Информация          : UTF-8 Plain Text
Заголовок                                : Original (SDH)
Язык                                     : English
Default                                  : Нет
Forced                                   : Нет

Меню
00:00:00.000                             : en:Chapter 01
00:03:36.049                             : en:Chapter 02
00:07:53.181                             : en:Chapter 03
00:13:41.195                             : en:Chapter 04
00:16:39.373                             : en:Chapter 05
00:20:45.035                             : en:Chapter 06
00:26:04.312                             : en:Chapter 07
00:29:27.265                             : en:Chapter 08
00:35:58.573                             : en:Chapter 09
00:40:36.475                             : en:Chapter 10
00:44:46.433                             : en:Chapter 11
00:48:15.100                             : en:Chapter 12
00:52:07.499                             : en:Chapter 13
00:56:06.780                             : en:Chapter 14
00:59:07.085                             : en:Chapter 15
01:03:17.710                             : en:Chapter 16
01:08:45.079                             : en:Chapter 17
01:14:03.230                             : en:Chapter 18
01:16:34.965                             : en:Chapter 19
01:20:46.925                             : en:Chapter 20
01:23:36.219                             : en:Chapter 21
01:30:09.737                             : en:Chapter 22
01:33:02.493                             : en:Chapter 23
01:35:41.235                             : en:Chapter 24



Скриншоты:
[+] Всего файлов в раздаче - 1:
Isle.of.Dogs.2018.720p.BluRay.DD5.1.x264.-whip93.mkv3.97 GB

Текущая раздача:
ДатаКомментарии    РазмерПиры
2018-09-02 U Остров собак / Isle of Dogs (2018) BDRip 720p | Лицензия 3.97 GB ↑ 39 ↓ 13

Показать еще раздачи по запросу остров:
2018-09-02 U Остров собак / Isle of Dogs (2018) BDRip 1080p | Лицензия 8.17 GB ↑ 65 ↓ 13
2018-09-01 U Остров собак / Isle of Dogs (2018) BDRip от MegaPeer | Лицензия 1К1.46 GB ↑ 32 ↓ 20
2018-07-24 U Остров исправления (2017) WEB-DL 1080p 2.57 GB ↑ 343 ↓ 77
2018-07-23 U Остров исправления (2017) WEB-DLRip-AVC от Files-x 1.37 GB ↑ 148 ↓ 36
2018-07-07 U Остров исправления (2017) WEB-DLRip от GeneralFilm 745.25 MB ↑ 585 ↓ 83
2018-07-07 U Остров исправления (2017) WEB-DLRip от Files-x 1.11 GB ↑ 320 ↓ 83
2018-05-23 U Остров Обезглавливания / Onna-ro hizu / Decapitation Island (1970) DVDRip | Sub 739.09 MB ↑ 178 ↓ 39

Отзывы
Зарегистрируйтесь чтобы добавить комментарий.
Обратная связь
Copyleft ©