↑↓Torrent.by
Поиск
Логин: Регистрация
Пароль: Восстановить пароль
Загрузка...

Аризона / Arizona (2018) WEB-DLRip-AVC от OlLanDGroup | HDRezka Studio

Скачать arizona-2018-web-dlrip-avc-ot-ollandgroup-hdrezka-studio.torrent
U Магнитная ссылка Размер: 1.46 GB Раздают: 72 Качают: 69 Добавлен: 2018-09-04 09:23:24
Аризона / Arizona (2018) WEB-DLRip-AVC от OlLanDGroup | HDRezka Studio

Аризона / Arizona
«The heat is on. But it's a dry heat»

Год выпуска: 2018
Страна: США
Производство: Imperative Entertainment,Rough House Pictures
Жанр:  Триллер, комедия, криминал

Режиссёр: Джонатан Уотсон
В ролях: Элизабет Гиллис, Дэнни МакБрайд, Кэйтлин Олсон, Розмари ДеУитт, Люк Уилсон, Дэвид Алан Грир, Трэвис Хаммер, Каллен Мосс, Джейд Каммерман, Одри Уолтерс

Перевод: Профессиональный (многоголосый, закадровый) | HDRezka Studio
Субтитры: Английские (полные)
Реклама: Отсутствует

Описание: Кесси, агент по продаже недвижимости и мать-одиночка, пытается справиться с жилищным кризисом 2009 года. Ситуация только ухудшается, когда в ее жизнь врывается недовольный клиент Сонни, чьи действия приносят только разрушение и смерть.

Качество: WEB-DLRip-AVC |
Продолжительность: 01:23:46

Формат: MKV
Видео кодек: MPEG-4 AVC
Аудио кодек: AC3
Видео: 1024x428 (2.40:1), 23,976 fps, x264 ~1 917 kbps avg, 0.182 bit/pixel
Аудио #1: 48 kHz, AC3 Dolby Digital, 2 (L,R) ch, ~192.00 kbps avg | RUS (HDRezka Studio)
Аудио #2: 48 kHz, AC3 Dolby Digital Plus, 3/2 (L,C,R,l,r) + LFE ch, ~384.00 kbps avg | ENG

Дата премьеры (мир): 20 января 2018
Дата премьеры (РФ):

Релиз:


[+] MediaInfo

Общее
Уникальный идентификатор                 : 258148282281099948472216381818375370083 (0xC2358CFA43A827DE13CC20C97FFDF563)
Полное имя                               : F:OlLanDGroupArizona.2018.WEB-DLRip(AVC).OlLanDGroup.mkv
Формат                                   : Matroska
Версия формата                           : Version 4 / Version 2
Размер файла                             : 1,46 Гбайт
Продолжительность                        : 1 ч. 23 м.
Общий поток                              : 2495 Кбит/сек
Название фильма                          : Arizona.2018   #TorpedoUK#
Дата кодирования                         : UTC 2018-09-04 03:40:30
Программа кодирования                    : mkvmerge v25.0.0 ('Prog Noir') 64-bit
Библиотека кодирования                   : libebml v1.3.6 + libmatroska v1.4.9
Обложка                                  : Yes
Attachments                              : small_cover.jpg / small_cover_land.jpg / cover.jpg / cover_land.jpg

Видео
Идентификатор                            : 1
Формат                                   : AVC
Формат/Информация                        : Advanced Video Codec
Профиль формата                          : High@L4.1
Параметр CABAC формата                   : Да
Параметр ReFrames формата                : 10 кадров
Идентификатор кодека                     : V_MPEG4/ISO/AVC
Продолжительность                        : 1 ч. 23 м.
Битрейт                                  : 1917 Кбит/сек
Ширина                                   : 1024 пикселя
Высота                                   : 428 пикселей
Соотношение сторон                       : 2,40:1
Режим частоты кадров                     : Постоянный
Частота кадров                           : 23,976 (24000/1001) кадра/сек
Цветовое пространство                    : YUV
Субдискретизация насыщенности            : 4:2:0
Битовая глубина                          : 8 бит
Тип развёртки                            : Прогрессивная
Бит/(Пиксели*Кадры)                      : 0.182
Размер потока                            : 1,12 Гбайт (77%)
Библиотека кодирования                   : x264 core 146 r2538 121396c
Настройки программы                      : cabac=1 / ref=10 / deblock=1:-2:-3 / analyse=0x3:0x113 / me=umh / subme=11 / psy=1 / psy_rd=0.95:0.07 / mixed_ref=1 / me_range=48 / chroma_me=1 / trellis=2 / 8x8dct=1 / cqm=0 / deadzone=21,11 / fast_pskip=1 / chroma_qp_offset=-3 / threads=6 / lookahead_threads=1 / sliced_threads=0 / nr=0 / decimate=1 / interlaced=0 / bluray_compat=0 / constrained_intra=0 / bframes=10 / b_pyramid=2 / b_adapt=2 / b_bias=0 / direct=3 / weightb=1 / open_gop=0 / weightp=2 / keyint=240 / keyint_min=23 / scenecut=40 / intra_refresh=0 / rc_lookahead=40 / rc=2pass / mbtree=1 / bitrate=1917 / ratetol=1.0 / qcomp=0.60 / qpmin=0 / qpmax=69 / qpstep=4 / cplxblur=20.0 / qblur=0.5 / vbv_maxrate=50000 / vbv_bufsize=62500 / nal_hrd=none / filler=0 / ip_ratio=1.40 / aq=1:1.00
Default                                  : Да
Forced                                   : Нет

Аудио #1
Идентификатор                            : 2
Формат                                   : AC-3
Формат/Информация                        : Audio Coding 3
Расширение режима                        : CM (complete main)
Параметр Endianness формата              : Big
Идентификатор кодека                     : A_AC3
Продолжительность                        : 1 ч. 23 м.
Вид битрейта                             : Постоянный
Битрейт                                  : 192 Кбит/сек
Каналы                                   : 2 канала
Расположение каналов                     : Front: L R
Частота                                  : 48,0 КГц
Частота кадров                           : 31,250 кадров/сек (1536 spf)
Битовая глубина                          : 16 бит
Метод сжатия                             : С потерями
Размер потока                            : 115 Мбайт (8%)
Заголовок                                : MVO [HDRezka Studio]
Язык                                     : Russian
Default                                  : Да
Forced                                   : Нет

Аудио #2
Идентификатор                            : 3
Формат                                   : AC-3
Формат/Информация                        : Audio Coding 3
Расширение режима                        : CM (complete main)
Параметр Endianness формата              : Big
Идентификатор кодека                     : A_AC3
Продолжительность                        : 1 ч. 23 м.
Вид битрейта                             : Постоянный
Битрейт                                  : 384 Кбит/сек
Каналы                                   : 6 каналов
Расположение каналов                     : Front: L C R, Side: L R, LFE
Частота                                  : 48,0 КГц
Частота кадров                           : 31,250 кадров/сек (1536 spf)
Битовая глубина                          : 16 бит
Метод сжатия                             : С потерями
Размер потока                            : 230 Мбайт (15%)
Заголовок                                : [Original]
Язык                                     : English
Default                                  : Нет
Forced                                   : Нет

Текст
Идентификатор                            : 4
Формат                                   : UTF-8
Идентификатор кодека                     : S_TEXT/UTF8
Идентификатор кодека/Информация          : UTF-8 Plain Text
Продолжительность                        : 1 ч. 16 м.
Битрейт                                  : 69 бит/сек
Count of elements                        : 1266
Размер потока                            : 39,3 Кбайт (0%)
Заголовок                                : Full
Язык                                     : English
Default                                  : Нет
Forced                                   : Нет

Меню
00:00:00.000                             : en:1
00:10:02.852                             : en:2
00:25:15.806                             : en:3
00:33:30.675                             : en:4
00:40:43.315                             : en:5
00:51:23.621                             : en:6
01:00:21.283                             : en:7
01:09:47.349                             : en:8
01:18:57.607                             : en:9



Скриншоты:
[+] Всего файлов в раздаче - 1:
Arizona.2018.WEB-DLRip(AVC).OlLanDGroup.mkv1.46 GB

Текущая раздача:
ДатаКомментарии    РазмерПиры
2018-09-04 U Аризона / Arizona (2018) WEB-DLRip-AVC от OlLanDGroup | HDRezka Studio 1.46 GB ↑ 72 ↓ 69

Похожие раздачи по запросу - аризона:
2018-09-04 U Аризона / Arizona (2018) WEB-DL 1080p от OlLanDGroup | HDRezka Studio 3.05 GB ↑ 341 ↓ 116

Отзывы
Зарегистрируйтесь чтобы добавить комментарий.
Обратная связь
Copyleft ©