↑↓Torrent.by
Поиск
Логин: Регистрация
Пароль: Восстановить пароль
Загрузка...

Портал / The Gateway (2018) WEB-DL 1080p от OlLanDGroup | HDRezka Studio

Скачать portal-the-gateway-2018-web-dl-1080p-ot-ollandgroup-hdrezka-studio.torrent
U Магнитная ссылка Размер: 4.38 GB Раздают: 169 Качают: 76 Добавлен: 2018-09-04 14:48:40
Портал / The Gateway (2018) WEB-DL 1080p от OlLanDGroup | HDRezka Studio

Портал / The Gateway

Год выпуска: 2018
Страна: Австралия
Производство: Filmscope Entertainment
Жанр:  Фантастика

Режиссёр: Джон В. Сото
В ролях: Жаклин МакКензи, Майлс Поллард, Шеннон Берри, Хейли МакЭлхинни, Бен Мортли, Трой Кауорд, Адам Ти Перкинс, Джаг Панну, Джон МакФерсон

Перевод: Профессиональный (многоголосый, закадровый) | HDRezka Studio
Субтитры: Английские (полные, SDH)
Реклама: Отсутствует

Описание: Женщина-учёный, чья специализация — физика элементраных частиц, теряет мужа в автокатастрофе. Отчаяние толкает женщину на опасный эксперимент: она отправляется в параллельный мир, чтобы отыскать там погибшего супруга. Дальнейшие события доказывают, что телепортация ни к чему хорошему не приводит.

Качество: WEB-DL 1080p |
Продолжительность: 01:30:23

Формат: MKV
Видео кодек: MPEG-4 AVC
Аудио кодек: AC3
Видео: 1920x816 (2.40:1), 24,000 fps, x264 ~6 101 kbps avg, 0.162 bit/pixel
Аудио #1: 48 kHz, AC3 Dolby Digital, 2 (L,R) ch, ~192.00 kbps avg | RUS (HDRezka Studio)
Аудио #2: 48 kHz, E-AC3 Dolby Digital Plus, 3/2 (L,C,R,l,r) + LFE ch, ~640.00 kbps avg | ENG

Дата премьеры (мир): 10 февраля 2018
Дата премьеры (РФ):

Релиз:


[+] MediaInfo

Общее
Уникальный идентификатор                 : 217829268554660221134346819869699644520 (0xA3E0641F9C4DCFA2C98F5A4E70F69C68)
Полное имя                               : F:OlLanDGroupThe.Gateway.2018.WEB-DL(1080p).OlLanDGroup.mkv
Формат                                   : Matroska
Версия формата                           : Version 4 / Version 2
Размер файла                             : 4,38 Гбайт
Продолжительность                        : 1 ч. 30 м.
Режим общего битрейта                    : Переменный
Общий поток                              : 6935 Кбит/сек
Название фильма                          : The.Gateway.2018   #TorpedoUK#
Дата кодирования                         : UTC 2018-09-04 08:57:16
Программа кодирования                    : mkvmerge v25.0.0 ('Prog Noir') 64-bit
Библиотека кодирования                   : libebml v1.3.6 + libmatroska v1.4.9

Видео
Идентификатор                            : 1
Формат                                   : AVC
Формат/Информация                        : Advanced Video Codec
Профиль формата                          : High@L4
Параметр CABAC формата                   : Да
Параметр ReFrames формата                : 4 кадра
Идентификатор кодека                     : V_MPEG4/ISO/AVC
Продолжительность                        : 1 ч. 30 м.
Вид битрейта                             : Переменный
Битрейт                                  : 6101 Кбит/сек
Максимальный битрейт                     : 15,0 Мбит/сек
Ширина                                   : 1920 пикселей
Высота                                   : 816 пикселей
Соотношение сторон                       : 2,35:1
Режим частоты кадров                     : Постоянный
Частота кадров                           : 24,000 кадра/сек
Цветовое пространство                    : YUV
Субдискретизация насыщенности            : 4:2:0
Битовая глубина                          : 8 бит
Тип развёртки                            : Прогрессивная
Бит/(Пиксели*Кадры)                      : 0.162
Размер потока                            : 3,85 Гбайт (88%)
Default                                  : Да
Forced                                   : Нет
Цветовой диапазон                        : Limited
Основные цвета                           : BT.709
Характеристики трансфера                 : BT.709
Коэффициенты матрицы                     : BT.709

Аудио #1
Идентификатор                            : 2
Формат                                   : AC-3
Формат/Информация                        : Audio Coding 3
Расширение режима                        : CM (complete main)
Параметр Endianness формата              : Big
Идентификатор кодека                     : A_AC3
Продолжительность                        : 1 ч. 30 м.
Вид битрейта                             : Постоянный
Битрейт                                  : 192 Кбит/сек
Каналы                                   : 2 канала
Расположение каналов                     : Front: L R
Частота                                  : 48,0 КГц
Частота кадров                           : 31,250 кадров/сек (1536 spf)
Битовая глубина                          : 16 бит
Метод сжатия                             : С потерями
Размер потока                            : 124 Мбайт (3%)
Заголовок                                : MVO [HDRezka Studio]
Язык                                     : Russian
Default                                  : Да
Forced                                   : Нет

Аудио #2
Идентификатор                            : 3
Формат                                   : E-AC-3
Формат/Информация                        : Enhanced Audio Coding 3
Параметр Endianness формата              : Big
Идентификатор кодека                     : A_EAC3
Продолжительность                        : 1 ч. 30 м.
Вид битрейта                             : Постоянный
Битрейт                                  : 640 Кбит/сек
Каналы                                   : 6 каналов
Расположение каналов                     : Front: L C R, Side: L R, LFE
Частота                                  : 48,0 КГц
Частота кадров                           : 187,500 кадров/сек (256 spf)
Метод сжатия                             : С потерями
Размер потока                            : 414 Мбайт (9%)
Заголовок                                : [Original]
Язык                                     : English
Default                                  : Нет
Forced                                   : Нет

Текст #1
Идентификатор                            : 4
Формат                                   : UTF-8
Идентификатор кодека                     : S_TEXT/UTF8
Идентификатор кодека/Информация          : UTF-8 Plain Text
Продолжительность                        : 1 ч. 22 м.
Битрейт                                  : 37 бит/сек
Count of elements                        : 855
Размер потока                            : 23,0 Кбайт (0%)
Заголовок                                : Full
Язык                                     : English
Default                                  : Нет
Forced                                   : Нет

Текст #2
Идентификатор                            : 5
Формат                                   : UTF-8
Идентификатор кодека                     : S_TEXT/UTF8
Идентификатор кодека/Информация          : UTF-8 Plain Text
Продолжительность                        : 1 ч. 23 м.
Битрейт                                  : 41 бит/сек
Count of elements                        : 933
Размер потока                            : 25,2 Кбайт (0%)
Заголовок                                : SDH
Язык                                     : English
Default                                  : Нет
Forced                                   : Нет



Скриншоты:
[+] Всего файлов в раздаче - 1:
The.Gateway.2018.WEB-DL(1080p).OlLanDGroup.mkv4.38 GB

Текущая раздача:
ДатаКомментарии    РазмерПиры
2018-09-04 U Портал / The Gateway (2018) WEB-DL 1080p от OlLanDGroup | HDRezka Studio 4.38 GB ↑ 169 ↓ 76

Показать еще раздачи по запросу портал:
2018-10-29 U Портал / The Gateway (2018) BDRip-AVC от OlLanDGroup | HDRezka Studio 1.61 GB ↑ 29 ↓ 23
2018-10-29 U Портал / The Gateway (2018) HDRip-AVC от ExKinoRay | HDRezka Studio 1К745.73 MB ↑ 70 ↓ 15
2018-10-27 U Портал / The Gateway (2018) BDRip от MegaPeer | HDRezka Studio 1.46 GB ↑ 237 ↓ 88
2018-09-06 U Портал / The Gateway (2018) WEB-DLRip | HDrezka Studio 711.76 MB ↑ 64 ↓ 10
2018-09-04 U Портал / The Gateway (2018) WEB-DLRip-AVC от OlLanDGroup | HDRezka Studio 1.46 GB ↑ 230 ↓ 52
2018-02-27 U Портал / The Gateway (2018) WEB-DLRip | HDrezka Studio 1.46 GB ↑ 217 ↓ 30
2018-02-22 U Портал / The Gateway (2018) WEBRip 1O8Op | L 1К3.37 GB ↑ 144 ↓ 61

Отзывы
Зарегистрируйтесь чтобы добавить комментарий.
Обратная связь
Copyleft ©